PDA

Archiv verlassen und diese Seite im Standarddesign anzeigen : Der blutige Pfad Gottes The Boondock Saints 1999 1080p BluRay AC3D DL x264 - HDC



Zarroc
17.07.14, 07:09
The.Boondock.Saints.1999.1080p.BluRay.AC3D.DL.x264-HDC
aka "Der blutige Pfad Gottes"

[Link nur für registrierte und freigeschaltete Benutzer sichtbar]


Die Schergen der Russen-Mafia hätten es sich besser überlegen sollen, ob es eine gute Idee ist, am St. Patricks Day einen Pub im irisch dominierten South Boston zu schließen. Bei ihrem Versuch treffen sie auf den erbitterten Widerstand der Stammgäste Connor (Sean Patrick Flanery) und Murphy MacManus (Norman Reedus). Die Russen ziehen lädiert von dannen, wollen sich aber am nächsten Tag die beiden Iren vorknöpfen. Das bezahlen sie mit dem Leben. Da Connor und Murphy angesichts ihres Widerstandes gegen das organisierte Verbrechen große Sympathien entgegen schlagen, beschließen sie, den Pfad der Bestrafung weiter zu gehen. Die beiden beginnen einen handfesten Kampf gegen die russische und italienische Mafia. Dabei müssen sie mehr als einmal um ihr Leben fürchten. Außerdem ist der exzentrisch auftretende Polizist Paul Smecker (Willem Dafoe) hinter den beiden her, da er mit der Aufklärung der Mordserie befasst ist.

MediaInfo:

General
Unique ID : 232911180637950876049647868038434811171 (0xAF390FCCB4D515B2992D4330F7E06D23)
Complete name : The.Boondock.Saints.1999.1080p.BluRay.AC3D.DL.x264-HDC.mkv
Format : Matroska
Format version : Version 2
File size : 11.4 GiB
Duration : 1h 48mn
Overall bit rate mode : Variable
Overall bit rate : 15.1 Mbps
Encoded date : UTC 2009-09-16 12:32:36
Writing application : mkvmerge v2.9.8 ('C'est le bon') built on Aug 13 2009 12:49:06
Writing library : libebml v0.7.7 + libmatroska v0.8.1

Video
ID : 1
Format : AVC
Format/Info : Advanced Video Codec
Format profile : [email protected]
Format settings, CABAC : Yes
Format settings, ReFrames : 5 frames
Codec ID : V_MPEG4/ISO/AVC
Duration : 1h 48mn
Bit rate : 13.0 Mbps
Width : 1 920 pixels
Height : 816 pixels
Display aspect ratio : 2.35:1
Frame rate mode : Constant
Frame rate : 23.976 fps
Color space : YUV
Chroma subsampling : 4:2:0
Bit depth : 8 bits
Scan type : Progressive
Bits/(Pixel*Frame) : 0.346
Stream size : 9.61 GiB (84%)
Title : 13 Mbps AVC MPEG-4
Writing library : x264 core 72 r1222M d0ee6f8
Encoding settings : cabac=1 / ref=5 / deblock=1:-3:-3 / analyse=0x3:0x113 / me=umh / subme=9 / psy=1 / psy_rd=0.8:0.0 / mixed_ref=1 / me_range=24 / chroma_me=1 / trellis=2 / 8x8dct=1 / cqm=0 / deadzone=21,11 / chroma_qp_offset=-2 / threads=6 / nr=0 / decimate=1 / mbaff=0 / bframes=3 / b_pyramid=0 / b_adapt=2 / b_bias=0 / direct=3 / wpredb=1 / keyint=250 / keyint_min=25 / scenecut=40 / rc_lookahead=60 / rc=2pass / mbtree=1 / bitrate=13000 / ratetol=1.0 / qcomp=0.60 / qpmin=10 / qpmax=51 / qpstep=4 / cplxblur=20.0 / qblur=0.5 / vbv_maxrate=50000 / vbv_bufsize=50000 / ip_ratio=1.40 / aq=1:0.80
Language : German
Default : No
Forced : No

Audio #1
ID : 2
Format : AC-3
Format/Info : Audio Coding 3
Mode extension : CM (complete main)
Format settings, Endianness : Big
Codec ID : A_AC3
Duration : 1h 48mn
Bit rate mode : Constant
Bit rate : 448 Kbps
Channel count : 6 channels
Channel positions : Front: L C R, Side: L R, LFE
Sampling rate : 48.0 KHz
Bit depth : 16 bits
Compression mode : Lossy
Stream size : 348 MiB (3%)
Title : 5.1 AC3 @ 448 kbps [DUBBED]
Language : German
Default : Yes
Forced : Yes

Audio #2
ID : 3
Format : DTS
Format/Info : Digital Theater Systems
Mode : 16
Format settings, Endianness : Big
Codec ID : A_DTS
Duration : 1h 48mn
Bit rate mode : Constant
Bit rate : 1 509 Kbps
Channel count : 6 channels
Channel positions : Front: L C R, Side: L R, LFE
Sampling rate : 48.0 KHz
Bit depth : 24 bits
Compression mode : Lossy
Stream size : 1.14 GiB (10%)
Title : 5.1 DTS @ 1536 kbps
Language : English
Default : No
Forced : No

Audio #3
ID : 4
Format : Vorbis
Format settings, Floor : 1
Codec ID : A_VORBIS
Duration : 1h 48mn
Bit rate mode : Variable
Bit rate : 80.0 Kbps
Channel count : 2 channels
Sampling rate : 48.0 KHz
Compression mode : Lossy
Stream size : 62.1 MiB (1%)
Title : 2.0 Vorbis @ 80 kbps - commentary Writer/Director Troy Duffy
Writing library : aoTuV b5c (UTC 2008-12-15)
Language : English
Default : No
Forced : No

Audio #4
ID : 5
Format : Vorbis
Format settings, Floor : 1
Codec ID : A_VORBIS
Duration : 1h 48mn
Bit rate mode : Variable
Bit rate : 80.0 Kbps
Channel count : 2 channels
Sampling rate : 48.0 KHz
Compression mode : Lossy
Stream size : 62.1 MiB (1%)
Title : 2.0 Vorbis @ 80 kbps - commentary Actor Billy Connolly
Writing library : aoTuV b5c (UTC 2008-12-15)
Language : English
Default : No
Forced : No

Text
ID : 6
Format : UTF-8
Codec ID : S_TEXT/UTF8
Codec ID/Info : UTF-8 Plain Text
Language : English
Default : No
Forced : No

Menu
00:00:00.000 : en:00:00:00.000
00:05:33.375 : en:00:05:33.375
00:08:37.142 : en:00:08:37.142
00:15:21.295 : en:00:15:21.295
00:19:22.495 : en:00:19:22.495
00:22:28.681 : en:00:22:28.681
00:26:34.343 : en:00:26:34.343
00:33:09.863 : en:00:33:09.863
00:35:58.573 : en:00:35:58.573
00:40:21.919 : en:00:40:21.919
00:44:50.897 : en:00:44:50.897
00:49:43.814 : en:00:49:43.814
00:54:08.495 : en:00:54:08.495
00:59:01.246 : en:00:59:01.246
01:02:58.608 : en:01:02:58.608
01:07:15.698 : en:01:07:15.698
01:11:27.492 : en:01:11:27.492
01:17:07.122 : en:01:17:07.122
01:21:29.092 : en:01:21:29.092
01:26:09.915 : en:01:26:09.915
01:30:54.407 : en:01:30:54.407
01:33:29.979 : en:01:33:29.979
01:38:53.344 : en:01:38:53.344
01:43:08.390 : en:01:43:08.390



NFO:

HHHHHHHHH HHHHHHHHHDDDDDDDDDDDDD CCCCCCCCCCCCC
H:::::::H H:::::::HD::::::::::::DDD CCC::::::::::::C
H:::::::H H:::::::HD:::::::::::::::DD CC:::::::::::::::C
HH::::::H H::::::HHDDD:::::DDDDD:::::D C:::::CCCCCCCC::::C
H:::::H H:::::H D:::::D D:::::D C:::::C CCCCCC
H:::::H H:::::H D:::::D D:::::DC:::::C
H::::::HHHHH::::::H D:::::D D:::::DC:::::C
H:::::::::::::::::H D:::::D D:::::DC:::::C
H:::::::::::::::::H D:::::D D:::::DC:::::C
H::::::HHHHH::::::H D:::::D D:::::DC:::::C
H:::::H H:::::H D:::::D D:::::DC:::::C
H:::::H H:::::H D:::::D D:::::D C:::::C CCCCCC
HH::::::H H::::::HHDDD:::::DDDDD:::::D C:::::CCCCCCCC::::C
H:::::::H H:::::::HD:::::::::::::::DD CC:::::::::::::::C
H:::::::H H:::::::HD::::::::::::DDD CCC::::::::::::C
HHHHHHHHH HHHHHHHHHDDDDDDDDDDDDD CCCCCCCCCCCCC

--- What else ---
------------------------------------------------------------------


Proudly presents


The.Boondock.Saints.1999.1080p.BluRay.AC3D.DL.x264-HDC


Genre.
Action | Crime | Drama | Thriller


Tagline.
Brothers. Killers. Saints.


Plot.
Fraternal twins set out to rid Boston of the evil men
operating there while being tracked down by an FBI agent.


General Information
RUNTIME..............: 01h:48m:26s
SIZE.................: 11.4 GB
VIDEO CODEC..........: x264 [LVL4.1 @ ref5][DXVA]
FRAMERATE............: 23.976 fps
BITRATE..............: 13000 kbps
RESOLUTION...........: 1920x816 [AR 2.35:1]
PRIMARY.AUDIO........: German 5.1 AC3 @ 448 kbps [DUBBED]
SECONDARY.AUDIO......: English 5.1 DTS @ 1536 kbps
PRIMARY.COMMENTARY...: English 2.0 Vorbis @ 80 kbps - Writer/Director Troy Duffy
SECONDARY.COMMENTARY.: English 2.0 Vorbis @ 80 kbps - Actor Billy Connolly
SUBTITLES............: English
CHAPTERS.............: Yes
SOURCE...............: The Boondock Saints 1999 1080p Blu-ray AVC DTS-HD 5.1-CtrlHD
IMDB RATING..........: 7.9/10 71,287 votes
IMDB LINK............: [Link nur für registrierte und freigeschaltete Benutzer sichtbar]


x264 [info]: profile High, level 4.1
x264 [info]: slice I:2537 Avg QP:17.22 size:113370
x264 [info]: slice P:49582 Avg QP:17.88 size: 88869
x264 [info]: slice B:103889 Avg QP:19.21 size: 56589

encoded 156008 frames, 2.42 fps, 12999.26 kb/s


//Notes//

Playable on / Ps3 / TViX / Popcorn Hour / WD HD Player

Sprache: Dubs: German, English; Subs: English
Länge: 1h 48mn
Größe: 11.4 GiB (12x1000MiB Parts)
Gruppe: HDC
Quelle: BluRay


[Link nur für registrierte und freigeschaltete Benutzer sichtbar]

Enthaltene Dateien:

The.Boondock.Saints.1999.1080p.BluRay.AC3D.DL.x264-HDC.mkv
The.Boondock.Saints.1999.1080p.BluRay.AC3D.DL.x264-HDC.nfo

Download:

[Link nur für registrierte und freigeschaltete Benutzer sichtbar] The.Boondock.Saints.1999.1080p.BluRay.AC3D.DL.x264-HDC ([Link nur für registrierte und freigeschaltete Benutzer sichtbar])

1fichier, MEGA, Share-Online, Uploaded