PDA

Archiv verlassen und diese Seite im Standarddesign anzeigen : Taking Woodstock 2009 1080p BluRay DTS DL x264 - HDC



Zarroc
17.07.14, 08:07
Taking.Woodstock.2009.1080p.BluRay.DTS.DL.x264-HDC

[Link nur für registrierte und freigeschaltete Benutzer sichtbar]


Elliot Teichberg (Demetri Martin) ist lange raus aus dem Kaff Bethel. Trotzdem reist er jeden Sommer zurück, weil er seinen Eltern dabei hilft, ein heruntergekommenes Motel zu führen. Im Juli 1969 erfährt er, dass dem wenige Meilen entfernten Ort Wallkill die Genehmigung für das Woodstock-Festival versagt wurde. Er sieht eine gute Gelegenheit, das elterliche Geschäft wieder anzukurbeln. Kurzerhand setzt er sich mit den Organisatoren in Verbindung und überzeugt sie, dass Bethel der perfekte Ort für das Musikfestival wäre. Doch die Sache wird schwierig, als sich plötzlich eine riesige Hippie-Gruppe auf den Weg macht, das Fest ihres Lebens zu feiern...

MediaInfo:

General
Unique ID : 246153386007293337795851373331812627692 (0xB92F6AEE8AFAC63B9812DC1DD71AB4EC)
Complete name : Taking.Woodstock.2009.1080p.BluRay.DTS.DL.x264-HDC.mkv
Format : Matroska
Format version : Version 2
File size : 12.7 GiB
Duration : 2h 0mn
Overall bit rate : 15.1 Mbps
Movie name : Taking Woodstock 2009 - HDC
Encoded date : UTC 2010-05-04 13:08:22
Writing application : mkvmerge v2.9.8 ('C'est le bon') built on Aug 13 2009 12:49:06
Writing library : libebml v0.7.7 + libmatroska v0.8.1

Video
ID : 1
Format : AVC
Format/Info : Advanced Video Codec
Format profile : High@L4.1
Format settings, CABAC : Yes
Format settings, ReFrames : 4 frames
Codec ID : V_MPEG4/ISO/AVC
Duration : 2h 0mn
Bit rate : 11.9 Mbps
Width : 1 920 pixels
Height : 1 040 pixels
Display aspect ratio : 1.85:1
Frame rate mode : Constant
Frame rate : 23.976 fps
Color space : YUV
Chroma subsampling : 4:2:0
Bit depth : 8 bits
Scan type : Progressive
Bits/(Pixel*Frame) : 0.249
Stream size : 9.92 GiB (78%)
Writing library : x264 core 93 r1542 5b86182
Encoding settings : cabac=1 / ref=4 / deblock=1:-3:-3 / analyse=0x3:0x113 / me=esa / subme=9 / psy=1 / psy_rd=1.30:0.00 / mixed_ref=1 / me_range=24 / chroma_me=1 / trellis=2 / 8x8dct=1 / cqm=0 / deadzone=6,6 / fast_pskip=0 / chroma_qp_offset=-2 / threads=12 / sliced_threads=0 / nr=0 / decimate=0 / interlaced=0 / constrained_intra=0 / bframes=7 / b_pyramid=2 / b_adapt=2 / b_bias=-1 / direct=3 / wpredb=1 / wpredp=2 / keyint=250 / keyint_min=25 / scenecut=40 / intra_refresh=0 / rc_lookahead=80 / rc=2pass / mbtree=1 / bitrate=11910 / ratetol=1000000000.0 / qcomp=0.80 / qpmin=10 / qpmax=51 / qpstep=4 / cplxblur=20.0 / qblur=0.5 / ip_ratio=1.10 / aq=1:0.65
Language : English
Default : Yes
Forced : No

Audio #1
ID : 2
Format : DTS
Format/Info : Digital Theater Systems
Mode : 16
Format settings, Endianness : Big
Codec ID : A_DTS
Duration : 2h 0mn
Bit rate mode : Constant
Bit rate : 1 509 Kbps
Channel(s) : 6 channels
Channel positions : Front: L C R, Side: L R, LFE
Sampling rate : 48.0 KHz
Bit depth : 24 bits
Compression mode : Lossy
Stream size : 1.27 GiB (10%)
Title : German DTS 5.1 @ 1.509 kbps (core of DTS-MA)
Language : German
Default : Yes
Forced : No

Audio #2
ID : 3
Format : DTS
Format/Info : Digital Theater Systems
Mode : 16
Format settings, Endianness : Big
Codec ID : A_DTS
Duration : 2h 0mn
Bit rate mode : Constant
Bit rate : 1 509 Kbps
Channel(s) : 6 channels
Channel positions : Front: L C R, Side: L R, LFE
Sampling rate : 48.0 KHz
Bit depth : 24 bits
Compression mode : Lossy
Stream size : 1.27 GiB (10%)
Title : English DTS 5.1 @ 1.509 kbps (core of DTS-MA)
Language : English
Default : No
Forced : No

Text #1
ID : 4
Format : UTF-8
Codec ID : S_TEXT/UTF8
Codec ID/Info : UTF-8 Plain Text
Title : German
Language : German
Default : No
Forced : No

Text #2
ID : 5
Format : UTF-8
Codec ID : S_TEXT/UTF8
Codec ID/Info : UTF-8 Plain Text
Title : English
Language : English
Default : No
Forced : No

Menu
00:00:00.000 : :00:00:00.000
00:06:47.324 : :00:06:47.324
00:17:01.020 : :00:17:01.020
00:31:30.388 : :00:31:30.388
00:42:07.567 : :00:42:07.567
00:53:09.937 : :00:53:09.937
01:01:36.067 : :01:01:36.067
01:12:49.699 : :01:12:49.699
01:21:52.950 : :01:21:52.950
01:33:15.048 : :01:33:15.048
01:47:15.387 : :01:47:15.387
01:54:17.601 : :01:54:17.601



NFO:

HHHHHHHHH HHHHHHHHHDDDDDDDDDDDDD CCCCCCCCCCCCC
H:::::::H H:::::::HD::::::::::::DDD CCC::::::::::::C
H:::::::H H:::::::HD:::::::::::::::DD CC:::::::::::::::C
HH::::::H H::::::HHDDD:::::DDDDD:::::D C:::::CCCCCCCC::::C
H:::::H H:::::H D:::::D D:::::D C:::::C CCCCCC
H:::::H H:::::H D:::::D D:::::DC:::::C
H::::::HHHHH::::::H D:::::D D:::::DC:::::C
H:::::::::::::::::H D:::::D D:::::DC:::::C
H:::::::::::::::::H D:::::D D:::::DC:::::C
H::::::HHHHH::::::H D:::::D D:::::DC:::::C
H:::::H H:::::H D:::::D D:::::DC:::::C
H:::::H H:::::H D:::::D D:::::D C:::::C CCCCCC
HH::::::H H::::::HHDDD:::::DDDDD:::::D C:::::CCCCCCCC::::C
H:::::::H H:::::::HD:::::::::::::::DD CC:::::::::::::::C
H:::::::H H:::::::HD::::::::::::DDD CCC::::::::::::C
HHHHHHHHH HHHHHHHHHDDDDDDDDDDDDD CCCCCCCCCCCCC

--- What else ---
------------------------------------------------------------------


Proudly presents


Taking.Woodstock.2009.1080p.BluRay.DTS.DL.x264-HDC


Genre.
Comedy | Drama | Music


Tagline.
"A Generation Began In His Backyard."


Plot.
A man working at his parents' motel in the Catskills
inadvertently sets in motion the generation-defining
concert in the summer of 1969.


General Information
Release Name..: Taking.Woodstock.2009.1080p.BluRay.DTS.DL.x264-HDC
Release Date..: 07.05.2010
Runtime.......: 02h:00m:27s
Size..........: 12.70 GB
Video Codec...: x264 [LVL4.1][DXVA]
Framerate.....: 23.976 fps
Bitrate.......: 12.091 kbps
Resolution....: 1920x1040 [AR 1.85:1]
Audio 1.......: German 5.1 DTS @ 1.510 kbps (core of DTS-MA)
Audio 2.......: English 5.1 DTS @ 1.510 kbps (core of DTS-MA)
Chapters......: YES like BluRay
Subtitles.....: German, English
Source........: BluRay VC1 ~ 22.134 Mbps thx 2 Me
Encoder .....: iwok
IMDB Rating...: 6.8/10 [7.405 votes]
IMDB Link.....: [Link nur für registrierte und freigeschaltete Benutzer sichtbar]


x264 [info]: profile High, level 4.1
x264 [info]: frame I:1201 Avg QP:16.04 size:202790
x264 [info]: frame P:36714 Avg QP:16.80 size:110136
x264 [info]: frame B:135359 Avg QP:18.14 size: 49028
x264 [info]: SSIM Mean Y:0.9842731

encoded 173274 frames, 2.61 fps, 12091.89 kb/s


//Notes//




Sprache: Dubs: German, English; Subs: German, English
Länge: 2h 0mn
Größe: 12.7 GiB (14x1000MiB Parts)
Gruppe: HDC
Quelle: BluRay


[Link nur für registrierte und freigeschaltete Benutzer sichtbar]

Enthaltene Dateien:

Taking.Woodstock.2009.1080p.BluRay.DTS.DL.x264-HDC.mkv
Taking.Woodstock.2009.1080p.BluRay.DTS.DL.x264-HDC.nfo

Download:

[Link nur für registrierte und freigeschaltete Benutzer sichtbar] Taking.Woodstock.2009.1080p.BluRay.DTS.DL.x264-HDC ([Link nur für registrierte und freigeschaltete Benutzer sichtbar])

1fichier, MEGA, Share-Online, Uploaded