PDA

Archiv verlassen und diese Seite im Standarddesign anzeigen : Super 2010 1080p BluRay DTS DL x264 - HDC



Zarroc
17.07.14, 07:05
Super.2010.1080p.BluRay.DTS.DL.x264-HDC
aka "Super - Shut Up, Crime!"

[Link nur für registrierte und freigeschaltete Benutzer sichtbar]


Als seine Frau (Liv Tyler) dem Charme eines heimtückischen Drogendealers (Kevin Bacon) erliegt, wird ein normaler und eigentlich recht weinerlicher Durchschnittstyp (Rainn Wilson) zum Möchtegern-Superhelden "Crimson Belt". Da er allerdings keine Superkräfte hat, ist die Arbeit etwas komplizierter. Unterstützung bekommt er von einer jungen fanatischen Comic-Leserin (Ellen Page), die mit ihm gemeinsam dem Verbrechen den Kampf ansagen will.

MediaInfo:

General
Unique ID : 184273236267483610938848185665275391197 (0x8AA1BBFF8501E36D8DACFD17EAF96CDD)
Complete name : Super.2010.1080p.BluRay.DTS.DL.x264-HDC.mkv
Format : Matroska
Format version : Version 2
File size : 10.5 GiB
Duration : 1h 36mn
Overall bit rate : 15.6 Mbps
Encoded date : UTC 2011-12-22 19:42:22
Writing application : mkvmerge v5.2.0 ('I can't explain') built on Dec 18 2011 18:12:03
Writing library : libebml v1.2.3 + libmatroska v1.3.0

Video
ID : 1
Format : AVC
Format/Info : Advanced Video Codec
Format profile : High@L4.1
Format settings, CABAC : Yes
Format settings, ReFrames : 4 frames
Codec ID : V_MPEG4/ISO/AVC
Duration : 1h 36mn
Bit rate : 12.5 Mbps
Width : 1 920 pixels
Height : 1 038 pixels
Display aspect ratio : 1.85:1
Frame rate mode : Constant
Frame rate : 23.976 fps
Color space : YUV
Chroma subsampling : 4:2:0
Bit depth : 8 bits
Scan type : Progressive
Bits/(Pixel*Frame) : 0.263
Stream size : 8.23 GiB (79%)
Writing library : x264 core 120 r2120 0c7dab9
Encoding settings : cabac=1 / ref=4 / deblock=1:-3:-3 / analyse=0x3:0x113 / me=umh / subme=9 / psy=1 / psy_rd=1.00:0.00 / mixed_ref=1 / me_range=32 / chroma_me=1 / trellis=2 / 8x8dct=1 / cqm=0 / deadzone=21,11 / fast_pskip=0 / chroma_qp_offset=-2 / threads=6 / sliced_threads=0 / nr=0 / decimate=0 / interlaced=0 / bluray_compat=0 / constrained_intra=0 / bframes=4 / b_pyramid=2 / b_adapt=2 / b_bias=0 / direct=3 / weightb=1 / open_gop=0 / weightp=2 / keyint=250 / keyint_min=23 / scenecut=40 / intra_refresh=0 / rc_lookahead=80 / rc=2pass / mbtree=1 / bitrate=12545 / ratetol=1.0 / qcomp=0.70 / qpmin=0 / qpmax=69 / qpstep=4 / cplxblur=20.0 / qblur=0.5 / ip_ratio=1.10 / aq=1:0.90
Language : English
Default : Yes
Forced : No

Audio #1
ID : 2
Format : DTS
Format/Info : Digital Theater Systems
Mode : 16
Format settings, Endianness : Big
Codec ID : A_DTS
Duration : 1h 36mn
Bit rate mode : Constant
Bit rate : 1 509 Kbps
Channel(s) : 6 channels
Channel positions : Front: L C R, Side: L R, LFE
Sampling rate : 48.0 KHz
Bit depth : 24 bits
Compression mode : Lossy
Stream size : 1.01 GiB (10%)
Title : German 5.1 DTS @ 1509 kbps
Language : German
Default : Yes
Forced : No

Audio #2
ID : 3
Format : DTS
Format/Info : Digital Theater Systems
Mode : 16
Format settings, Endianness : Big
Codec ID : A_DTS
Duration : 1h 36mn
Bit rate mode : Constant
Bit rate : 1 509 Kbps
Channel(s) : 6 channels
Channel positions : Front: L C R, Side: L R, LFE
Sampling rate : 48.0 KHz
Bit depth : 24 bits
Compression mode : Lossy
Stream size : 1.01 GiB (10%)
Title : English 5.1 DTS @ 1509 kbps
Language : English
Default : No
Forced : No

Text #1
ID : 4
Format : VobSub
Muxing mode : zlib
Codec ID : S_VOBSUB
Codec ID/Info : The same subtitle format used on DVDs
Title : german forced
Language : German
Default : Yes
Forced : No

Text #2
ID : 5
Format : VobSub
Muxing mode : zlib
Codec ID : S_VOBSUB
Codec ID/Info : The same subtitle format used on DVDs
Title : german
Language : German
Default : No
Forced : No

Text #3
ID : 6
Format : VobSub
Muxing mode : zlib
Codec ID : S_VOBSUB
Codec ID/Info : The same subtitle format used on DVDs
Title : english
Language : English
Default : No
Forced : No

Text #4
ID : 7
Format : VobSub
Muxing mode : zlib
Codec ID : S_VOBSUB
Codec ID/Info : The same subtitle format used on DVDs
Title : spanish
Language : Spanish
Default : No
Forced : No

Menu
00:00:00.000 : :00:00:00.000
00:07:51.971 : :00:07:51.971
00:14:48.304 : :00:14:48.304
00:22:46.282 : :00:22:46.282
00:31:10.827 : :00:31:10.827
00:38:12.874 : :00:38:12.874
00:46:01.968 : :00:46:01.968
00:53:00.260 : :00:53:00.260
01:00:44.140 : :01:00:44.140
01:07:53.611 : :01:07:53.611
01:14:57.910 : :01:14:57.910
01:21:08.197 : :01:21:08.197
01:27:41.715 : :01:27:41.715
01:31:37.492 : :01:31:37.492



NFO:

HHHHHHHHH HHHHHHHHHDDDDDDDDDDDDD CCCCCCCCCCCCC
H:::::::H H:::::::HD::::::::::::DDD CCC::::::::::::C
H:::::::H H:::::::HD:::::::::::::::DD CC:::::::::::::::C
HH::::::H H::::::HHDDD:::::DDDDD:::::D C:::::CCCCCCCC::::C
H:::::H H:::::H D:::::D D:::::D C:::::C CCCCCC
H:::::H H:::::H D:::::D D:::::DC:::::C
H::::::HHHHH::::::H D:::::D D:::::DC:::::C
H:::::::::::::::::H D:::::D D:::::DC:::::C
H:::::::::::::::::H D:::::D D:::::DC:::::C
H::::::HHHHH::::::H D:::::D D:::::DC:::::C
H:::::H H:::::H D:::::D D:::::DC:::::C
H:::::H H:::::H D:::::D D:::::D C:::::C CCCCCC
HH::::::H H::::::HHDDD:::::DDDDD:::::D C:::::CCCCCCCC::::C
H:::::::H H:::::::HD:::::::::::::::DD CC:::::::::::::::C
H:::::::H H:::::::HD::::::::::::DDD CCC::::::::::::C
HHHHHHHHH HHHHHHHHHDDDDDDDDDDDDD CCCCCCCCCCCCC

--- What else ---
------------------------------------------------------------------


Proudly presents


Super.2010.1080p.BluRay.DTS.DL.x264-HDC


Genre.
Action | Comedy | Drama


Tagline.
Shut up, crime!


Plot.
After his wife falls under the influence of a drug dealer, an everyday guy transforms himself
into Crimson Bolt, a superhero with the best intentions, though he lacks for heroic skills.


General Information.
Release.Name.........: Super.2010.1080p.BluRay.DTS.DL.x264-HDC
Release.Date ........: 22.12.2011
RUNTIME..............: 01h:36m:07s
SIZE.................: 10.4 GB
VIDEO CODEC..........: x264 [@LVL4.1][DXVA]
FRAMERATE............: 23.976 fps
BITRATE..............: 12545 kbps [Source 34003 kbps]
RESOLUTION...........: 1920x1038
PRIMARY.AUDIO........: German 5.1 DTS @ 1509 kbps
SECONDARY.AUDIO.1....: English 5.1 DTS @ 1509 kbps
SUBTITLES............: ger forced, ger, eng, spa
CHAPTERS.............: Yes like BluRay
SOURCE.1.............: Super 2010 1080p Blu-ray AVC DTS-HD MA 5.1-HDChina
SOURCE.2.............: Super 2010 1080p GER Blu-ray AVC DTS-HD MA 5.1
IMDB.RATING..........: 6.8/10 20.778 votes
IMDB.LINK............: [Link nur für registrierte und freigeschaltete Benutzer sichtbar]


x264 [info]: frame I:1310 Avg QP:14.59 size:222479
x264 [info]: frame P:34933 Avg QP:15.27 size:104361
x264 [info]: frame B:101996 Avg QP:17.13 size: 50045

x264 [info]: SSIM Mean Y:0.9885113

encoded 138239 frames, 1.79 fps, 12545.12 kb/s


Sprache: Dubs: German, English; Subs: German, English, Spanish
Länge: 1h 36mn
Größe: 10.5 GiB (12x1000MiB Parts)
Gruppe: HDC
Quelle: BluRay


[Link nur für registrierte und freigeschaltete Benutzer sichtbar]

Enthaltene Dateien:

Super.2010.1080p.BluRay.DTS.DL.x264-HDC.mkv
Super.2010.1080p.BluRay.DTS.DL.x264-HDC.nfo

Download:

[Link nur für registrierte und freigeschaltete Benutzer sichtbar] Super.2010.1080p.BluRay.DTS.DL.x264-HDC ([Link nur für registrierte und freigeschaltete Benutzer sichtbar])

1fichier, MEGA, Share-Online, Uploaded