PDA

Archiv verlassen und diese Seite im Standarddesign anzeigen : Space Jam 1996 720p BluRay AC3 DL x264 - HDC



Zarroc
17.07.14, 07:04
Space.Jam.1996.720p.BluRay.AC3.DL.x264-HDC

[Link nur für registrierte und freigeschaltete Benutzer sichtbar]


Der böse Mr. Swackhammer (Stimme: Danny DeVito) benötigt dringend neue Attraktionen für seinen Vergnügungspark auf dem Planeten Moron Mountain. Er schickt fünf kleine Aliens ins Looney Tune Land, um die Looney Tunes zu kidnappen und als neues Highlight in die ferne Galaxie zu verfrachten. Siegesgewiss kann Bugs Bunny (Stimme: Billy West) die Wesen überreden, die Angelegenheit auf dem Basketballfeld zu klären. Doch die Aliens bemächtigen sich sogleich des Talents von fünf NBA-Stars und verwandeln sich in riesige Monster. Nun kann nur noch einer die Looney Tunes davor bewahren, zur Rummelattraktion zu verkommen. Verzweifelt ziehen sie den ehemaligen Basketball-Superstar Michael Jordan in ihre Comicwelt und überreden ihn, sie zu coachen. Nach einigem Zögern sagt er zu und bereitet sich mit seinen neuen Freunden auf das Spiel ihres Lebens vor...

MediaInfo:

General
Unique ID : 251731911912185475695981134305838355686 (0xBD61CD7E770A62CF8C7C9FDF0CCDD4E6)
Complete name : Space.Jam.1996.720p.BluRay.AC3.DL.x264-HDC.mkv
Format : Matroska
Format version : Version 2
File size : 4.09 GiB
Duration : 1h 27mn
Overall bit rate : 6 710 Kbps
Encoded date : UTC 2011-10-16 08:46:29
Writing application : mkvmerge v5.0.1 ('Es ist Sommer') built on Oct 9 2011 11:55:43
Writing library : libebml v1.2.2 + libmatroska v1.3.0

Video
ID : 1
Format : AVC
Format/Info : Advanced Video Codec
Format profile : [email protected]
Format settings, CABAC : Yes
Format settings, ReFrames : 9 frames
Muxing mode : Header stripping
Codec ID : V_MPEG4/ISO/AVC
Duration : 1h 27mn
Bit rate : 4 321 Kbps
Width : 1 272 pixels
Height : 720 pixels
Display aspect ratio : 16:9
Frame rate mode : Constant
Frame rate : 23.976 fps
Color space : YUV
Chroma subsampling : 4:2:0
Bit depth : 8 bits
Scan type : Progressive
Bits/(Pixel*Frame) : 0.197
Stream size : 2.58 GiB (63%)
Title : 5 Mbps AVC MPEG-4
Writing library : x264 core 112 r1834+3 ef18685
Encoding settings : cabac=1 / ref=9 / deblock=1:-3:-3 / analyse=0x3:0x113 / me=umh / subme=9 / psy=1 / fade_compensate=0.00 / psy_rd=0.80:0.00 / mixed_ref=1 / me_range=32 / chroma_me=1 / trellis=2 / 8x8dct=1 / cqm=0 / deadzone=21,11 / fast_pskip=1 / chroma_qp_offset=-2 / threads=6 / sliced_threads=0 / nr=0 / decimate=1 / interlaced=0 / constrained_intra=0 / fgo=0 / bframes=5 / b_pyramid=2 / b_adapt=2 / b_bias=0 / direct=3 / weightb=1 / open_gop=0 / weightp=2 / keyint=250 / keyint_min=23 / scenecut=40 / intra_refresh=0 / rc_lookahead=80 / rc=2pass / mbtree=1 / bitrate=4321 / ratetol=1.0 / qcomp=0.80 / qpmin=0 / qpmax=51 / qpstep=4 / cplxblur=20.0 / qblur=0.5 / ip_ratio=1.40 / aq=1:1.10
Language : German
Default : Yes
Forced : No

Audio #1
ID : 2
Format : AC-3
Format/Info : Audio Coding 3
Mode extension : CM (complete main)
Format settings, Endianness : Big
Muxing mode : Header stripping
Codec ID : A_AC3
Duration : 1h 27mn
Bit rate mode : Constant
Bit rate : 640 Kbps
Channel(s) : 6 channels
Channel positions : Front: L C R, Side: L R, LFE
Sampling rate : 48.0 KHz
Bit depth : 16 bits
Compression mode : Lossy
Stream size : 400 MiB (10%)
Title : 5.1 AC3 @ 640 kbps
Language : German
Default : Yes
Forced : Yes

Audio #2
ID : 3
Format : DTS
Format/Info : Digital Theater Systems
Mode : 16
Format settings, Endianness : Big
Muxing mode : Header stripping
Codec ID : A_DTS
Duration : 1h 27mn
Bit rate mode : Constant
Bit rate : 1 509 Kbps
Channel(s) : 6 channels
Channel positions : Front: L C R, Side: L R, LFE
Sampling rate : 48.0 KHz
Bit depth : 24 bits
Compression mode : Lossy
Stream size : 943 MiB (22%)
Title : 5.1 DTS @ 1510 kbps
Language : English
Default : No
Forced : No

Audio #3
ID : 4
Format : AC-3
Format/Info : Audio Coding 3
Format profile : Dolby Digital
Mode extension : CM (complete main)
Format settings, Endianness : Big
Muxing mode : Header stripping
Codec ID : A_AC3
Duration : 1h 27mn
Bit rate mode : Constant
Bit rate : 192 Kbps
Channel(s) : 2 channels
Channel positions : Front: L R
Sampling rate : 48.0 KHz
Bit depth : 16 bits
Compression mode : Lossy
Stream size : 120 MiB (3%)
Title : 2.0 AC3 @ 192 kbps - Commentary
Language : English
Default : No
Forced : No

Text #1
ID : 5
Format : VobSub
Muxing mode : zlib
Codec ID : S_VOBSUB
Codec ID/Info : The same subtitle format used on DVDs
Language : German
Default : No
Forced : No

Text #2
ID : 6
Format : VobSub
Muxing mode : zlib
Codec ID : S_VOBSUB
Codec ID/Info : The same subtitle format used on DVDs
Language : English
Default : No
Forced : No

Text #3
ID : 7
Format : VobSub
Muxing mode : zlib
Codec ID : S_VOBSUB
Codec ID/Info : The same subtitle format used on DVDs
Language : Italian
Default : No
Forced : No

Text #4
ID : 8
Format : VobSub
Muxing mode : zlib
Codec ID : S_VOBSUB
Codec ID/Info : The same subtitle format used on DVDs
Language : French
Default : No
Forced : No

Text #5
ID : 9
Format : VobSub
Muxing mode : zlib
Codec ID : S_VOBSUB
Codec ID/Info : The same subtitle format used on DVDs
Language : Norwegian
Default : No
Forced : No

Text #6
ID : 10
Format : VobSub
Muxing mode : zlib
Codec ID : S_VOBSUB
Codec ID/Info : The same subtitle format used on DVDs
Language : Portuguese
Default : No
Forced : No

Text #7
ID : 11
Format : VobSub
Muxing mode : zlib
Codec ID : S_VOBSUB
Codec ID/Info : The same subtitle format used on DVDs
Language : Spanish
Default : No
Forced : No

Text #8
ID : 12
Format : VobSub
Muxing mode : zlib
Codec ID : S_VOBSUB
Codec ID/Info : The same subtitle format used on DVDs
Language : Swedish
Default : No
Forced : No

Text #9
ID : 13
Format : VobSub
Muxing mode : zlib
Codec ID : S_VOBSUB
Codec ID/Info : The same subtitle format used on DVDs
Language : Danish
Default : No
Forced : No

Text #10
ID : 14
Format : VobSub
Muxing mode : zlib
Codec ID : S_VOBSUB
Codec ID/Info : The same subtitle format used on DVDs
Language : Finnish
Default : No
Forced : No

Menu
00:00:00.000 : en:00:00:00.000
00:02:22.642 : en:00:02:22.642
00:05:54.854 : en:00:05:54.854
00:09:01.124 : en:00:09:01.124
00:11:35.945 : en:00:11:35.945
00:14:09.140 : en:00:14:09.140
00:18:14.468 : en:00:18:14.468
00:21:36.629 : en:00:21:36.629
00:24:26.340 : en:00:24:26.340
00:25:47.087 : en:00:25:47.087
00:27:45.414 : en:00:27:45.414
00:30:26.533 : en:00:30:26.533
00:31:19.711 : en:00:31:19.711
00:34:05.001 : en:00:34:05.001
00:36:59.300 : en:00:36:59.300
00:38:11.915 : en:00:38:11.915
00:39:39.419 : en:00:39:39.419
00:42:11.070 : en:00:42:11.070
00:45:54.085 : en:00:45:54.085
00:46:39.755 : en:00:46:39.755
00:47:11.787 : en:00:47:11.787
00:48:05.800 : en:00:48:05.800
00:50:01.040 : en:00:50:01.040
00:53:40.884 : en:00:53:40.884
00:56:56.747 : en:00:56:56.747
00:57:56.973 : en:00:57:56.973
01:00:14.069 : en:01:00:14.069
01:02:27.577 : en:01:02:27.577
01:04:09.679 : en:01:04:09.679
01:06:06.421 : en:01:06:06.421
01:07:42.475 : en:01:07:42.475
01:09:32.794 : en:01:09:32.794
01:11:49.388 : en:01:11:49.388
01:12:30.304 : en:01:12:30.304
01:14:16.452 : en:01:14:16.452
01:15:25.896 : en:01:15:25.896
01:18:23.490 : en:01:18:23.490
01:26:53.208 : en:01:26:53.208



NFO:

HHHHHHHHH HHHHHHHHHDDDDDDDDDDDDD CCCCCCCCCCCCC
H:::::::H H:::::::HD::::::::::::DDD CCC::::::::::::C
H:::::::H H:::::::HD:::::::::::::::DD CC:::::::::::::::C
HH::::::H H::::::HHDDD:::::DDDDD:::::D C:::::CCCCCCCC::::C
H:::::H H:::::H D:::::D D:::::D C:::::C CCCCCC
H:::::H H:::::H D:::::D D:::::DC:::::C
H::::::HHHHH::::::H D:::::D D:::::DC:::::C
H:::::::::::::::::H D:::::D D:::::DC:::::C
H:::::::::::::::::H D:::::D D:::::DC:::::C
H::::::HHHHH::::::H D:::::D D:::::DC:::::C
H:::::H H:::::H D:::::D D:::::DC:::::C
H:::::H H:::::H D:::::D D:::::D C:::::C CCCCCC
HH::::::H H::::::HHDDD:::::DDDDD:::::D C:::::CCCCCCCC::::C
H:::::::H H:::::::HD:::::::::::::::DD CC:::::::::::::::C
H:::::::H H:::::::HD::::::::::::DDD CCC::::::::::::C
HHHHHHHHH HHHHHHHHHDDDDDDDDDDDDD CCCCCCCCCCCCC

--- What else ---
------------------------------------------------------------------


Proudly presents


Space.Jam.1996.720p.BluRay.AC3.DL.x264-HDC


Director.
Joe Pytka


Genre.
Animation | Adventure | Comedy | Family | Sci-Fi | Sport


Tagline.
Get ready to jam


Plot.
Michael Jordan agrees to help the Looney Toons play a
basketball game vs. alien slavers to determine their freedom.


General Information
RELEASE.DATE...........: 16.10.2011
RUNTIME................: 01h:27m:20s
SIZE...................: 4.09 GB
VIDEO.CODEC............: x264 [LVL4.1][DXVA]
FRAMERATE..............: 23.976 fps
BITRATE................: 4320 kbps [Source = 20977 kbps]
RESOLUTION.............: 1272x720 [AR 1.78:1]
PRIMARY.AUDIO..........: German 5.1 AC3 @ 640 kbps
SECONDARY.AUDIO........: English 5.1 DTS @ 1510 kbps
COMMENTARY.............: English 2.0 AC3 @ 192 kbps
SUBTITLES..............: German,English,French,Italian,Spanish,Portuguese,D anish,Norwegian,Finnish,Swedish
CHAPTERS...............: Yes
SOURCE.................: Space Jam 1996 1080p EUR Blu-ray AVC DTS-HD MA 5.1
IMDB.RATING............: 5.7/10
IMDB.LINK..............: [Link nur für registrierte und freigeschaltete Benutzer sichtbar]


x264 [info]: profile High, level 4.1

x264 [info]: frame I:1316 Avg QP:16.21 size:115895
x264 [info]: frame P:33031 Avg QP:19.09 size: 37236
x264 [info]: frame B:91294 Avg QP:20.14 size: 15859
x264 [info]: consecutive B-frames: 2.8% 4.5% 8.8% 48.0% 16.6% 19.2%
x264 [info]: SSIM Mean Y:0.9793678 (16.855db)

encoded 125641 frames, 4.40 fps, 4320.78 kb/s




Sprache: Dubs: German, English; Subs: German, English, Italian, French, Norwegian, Portuguese, Spanish, Swedish, Danish, Finnish
Länge: 1h 27mn
Größe: 4.09 GiB (5x1000MiB Parts)
Gruppe: HDC
Quelle: BluRay


[Link nur für registrierte und freigeschaltete Benutzer sichtbar]

Enthaltene Dateien:

Space.Jam.1996.720p.BluRay.AC3.DL.x264-HDC.mkv
Space.Jam.1996.720p.BluRay.AC3.DL.x264-HDC.nfo

Download:

[Link nur für registrierte und freigeschaltete Benutzer sichtbar] Space.Jam.1996.720p.BluRay.AC3.DL.x264-HDC ([Link nur für registrierte und freigeschaltete Benutzer sichtbar])

1fichier, MEGA, Share-Online, Uploaded