PDA

Archiv verlassen und diese Seite im Standarddesign anzeigen : Sherlock Holmes 2009 1080p BluRay AC3 DTS DL x264 - HDC



Zarroc
17.07.14, 07:00
Sherlock.Holmes.2009.1080p.BluRay.AC3.DTS.DL.x264-HDC

[Link nur für registrierte und freigeschaltete Benutzer sichtbar]


London, Ende des 19. Jahrhunderts: Sherlock Holmes (Robert Downey Jr.) und seinem Partner Dr. Watson (Jude Law) gelingt es in letzter Sekunde, einen Ritualmörder zu stellen, bevor dieser eine weitere Tat begeht. Unter der schwarzen Kutte verbirgt sich niemand Geringeres als Lord Blackwood (Mark Strong), der nun einem Ende am Galgen entgegensieht. Doch dem Eingekerkerten scheint seine Situation nicht allzu viel auszumachen. Stattdessen verkündet er Holmes, dass er mit bösen Mächten im Bunde stünde und nach seinem Tod noch drei weitere Menschen sterben würden. Während der Privatdetektiv die Drohung zunächst noch als bloßen Humbug abtut, kommen tatsächlich erste hochrangige Mitglieder der Londoner Gesellschaft auf merkwürdige Weise ums Leben. Bei der Exhumierung von Blackwoods Leiche stellt sich außerdem heraus, dass es sich inzwischen ein anderer Toter im Sarg des Mörders bequem gemacht hat. Es ist nun an Holmes, das mysteriöse Treiben als Scharlatanerie zu entlarven - oder sind hier vielleicht doch überirdische Mächte am Werk?

MediaInfo:

General
Unique ID : 236166806048251013402349388572443666810 (0xB1AC128670245ABBB10DB361393DE97A)
Complete name : Sherlock.Holmes.2009.1080p.BluRay.AC3.DTS.DL.x264-HDC.mkv
Format : Matroska
Format version : Version 2
File size : 14.3 GiB
Duration : 2h 8mn
Overall bit rate : 15.9 Mbps
Movie name : Sherlock Holmes 2009 - HDC
Encoded date : UTC 2010-05-08 09:10:43
Writing application : mkvmerge v2.9.8 ('C'est le bon') built on Aug 13 2009 12:49:06
Writing library : libebml v0.7.7 + libmatroska v0.8.1

Video
ID : 1
Format : AVC
Format/Info : Advanced Video Codec
Format profile : [email protected]
Format settings, CABAC : Yes
Format settings, ReFrames : 4 frames
Codec ID : V_MPEG4/ISO/AVC
Duration : 2h 8mn
Bit rate : 13.6 Mbps
Width : 1 920 pixels
Height : 1 080 pixels
Display aspect ratio : 16:9
Frame rate mode : Constant
Frame rate : 23.976 fps
Color space : YUV
Chroma subsampling : 4:2:0
Bit depth : 8 bits
Scan type : Progressive
Bits/(Pixel*Frame) : 0.274
Stream size : 12.2 GiB (86%)
Language : English
Default : Yes
Forced : No

Audio #1
ID : 2
Format : AC-3
Format/Info : Audio Coding 3
Mode extension : CM (complete main)
Format settings, Endianness : Big
Codec ID : A_AC3
Duration : 2h 8mn
Bit rate mode : Constant
Bit rate : 448 Kbps
Channel count : 6 channels
Channel positions : Front: L C R, Side: L R, LFE
Sampling rate : 48.0 KHz
Bit depth : 16 bits
Compression mode : Lossy
Delay relative to video : 13ms
Stream size : 411 MiB (3%)
Title : German AC3 5.1 @ 448 kbps (frak Warner)
Language : German
Default : Yes
Forced : No

Audio #2
ID : 3
Format : DTS
Format/Info : Digital Theater Systems
Mode : 16
Format settings, Endianness : Big
Codec ID : A_DTS
Duration : 2h 8mn
Bit rate mode : Constant
Bit rate : 1 509 Kbps
Channel count : 6 channels
Channel positions : Front: L C R, Side: L R, LFE
Sampling rate : 48.0 KHz
Bit depth : 24 bits
Compression mode : Lossy
Stream size : 1.35 GiB (9%)
Title : English DTS 5.1 @ 1.509 kbps (core of DTS-MA)
Language : English
Default : No
Forced : No

Text #1
ID : 4
Format : UTF-8
Codec ID : S_TEXT/UTF8
Codec ID/Info : UTF-8 Plain Text
Title : German forced
Language : German
Default : Yes
Forced : No

Text #2
ID : 5
Format : UTF-8
Codec ID : S_TEXT/UTF8
Codec ID/Info : UTF-8 Plain Text
Title : German
Language : German
Default : No
Forced : No

Text #3
ID : 6
Format : UTF-8
Codec ID : S_TEXT/UTF8
Codec ID/Info : UTF-8 Plain Text
Title : English
Language : English
Default : No
Forced : No

Menu
00:00:00.000 : :00:00:00.000
00:06:46.531 : :00:06:46.531
00:11:30.231 : :00:11:30.231
00:15:41.607 : :00:15:41.607
00:19:08.898 : :00:19:08.898
00:23:29.074 : :00:23:29.074
00:27:49.876 : :00:27:49.876
00:32:01.253 : :00:32:01.253
00:37:08.434 : :00:37:08.434
00:40:50.406 : :00:40:50.406
00:44:37.216 : :00:44:37.216
00:47:39.690 : :00:47:39.690
00:50:52.174 : :00:50:52.174
00:55:17.606 : :00:55:17.606
00:59:04.457 : :00:59:04.457
01:03:04.781 : :01:03:04.781
01:06:08.047 : :01:06:08.047
01:11:14.103 : :01:11:14.103
01:14:39.350 : :01:14:39.350
01:17:36.318 : :01:17:36.318
01:23:35.093 : :01:23:35.093
01:26:06.953 : :01:26:06.953
01:30:57.160 : :01:30:57.160
01:35:15.376 : :01:35:15.376
01:39:45.980 : :01:39:45.980
01:44:18.002 : :01:44:18.002
01:48:21.954 : :01:48:21.954
01:54:02.711 : :01:54:02.711
01:56:07.502 : :01:56:07.502
02:00:26.177 : :02:00:26.177



NFO:

HHHHHHHHH HHHHHHHHHDDDDDDDDDDDDD CCCCCCCCCCCCC
H:::::::H H:::::::HD::::::::::::DDD CCC::::::::::::C
H:::::::H H:::::::HD:::::::::::::::DD CC:::::::::::::::C
HH::::::H H::::::HHDDD:::::DDDDD:::::D C:::::CCCCCCCC::::C
H:::::H H:::::H D:::::D D:::::D C:::::C CCCCCC
H:::::H H:::::H D:::::D D:::::DC:::::C
H::::::HHHHH::::::H D:::::D D:::::DC:::::C
H:::::::::::::::::H D:::::D D:::::DC:::::C
H:::::::::::::::::H D:::::D D:::::DC:::::C
H::::::HHHHH::::::H D:::::D D:::::DC:::::C
H:::::H H:::::H D:::::D D:::::DC:::::C
H:::::H H:::::H D:::::D D:::::D C:::::C CCCCCC
HH::::::H H::::::HHDDD:::::DDDDD:::::D C:::::CCCCCCCC::::C
H:::::::H H:::::::HD:::::::::::::::DD CC:::::::::::::::C
H:::::::H H:::::::HD::::::::::::DDD CCC::::::::::::C
HHHHHHHHH HHHHHHHHHDDDDDDDDDDDDD CCCCCCCCCCCCC

--- What else ---
------------------------------------------------------------------


Proudly presents


Sherlock.Holmes.2009.1080p.BluRay.AC3.DTS.DL.x264-HDC


Genre.
Action | Adventure | Crime | Mystery | Thriller


Tagline.
Nothing Escapes Him


Plot.
Detective Sherlock Holmes and his stalwart partner Watson
engage in a battle of wits and brawn with a nemesis whose
plot is a threat to all of England.


General Information
Release Name..: Sherlock.Holmes.2009.1080p.BluRay.AC3.DTS.DL.x264-HDC
Release Date..: 09.05.2010
Runtime.......: 02h:08m:24s
Size..........: 14.26 GB
Video Codec...: x264 [LVL4.1][DXVA]
Framerate.....: 23.976 fps
Bitrate.......: 13.944 kbps
Resolution....: 1920x1080 [AR 16:9]
Audio 1.......: German 5.1 AC3 @ 448 kbps (frak Warner)
Audio 2.......: English 5.1 DTS @ 1.509 kbps (core of DTS-MA)
Chapters......: YES like BluRay
Subtitles.....: German forced, German, English
Source........: BluRay VC1 ~ 19.352 Mbps thx 2 CHDBits
Encoder .....: iwok
IMDB Rating...: 7.6/10 [74.597 votes]
IMDB Link.....: [Link nur für registrierte und freigeschaltete Benutzer sichtbar]


x264 [info]: profile High, level 4.1
x264 [info]: frame I:2022 Avg QP:16.85 size:159989
x264 [info]: frame P:49390 Avg QP:17.58 size:104464
x264 [info]: frame B:133317 Avg QP:18.96 size: 59606
x264 [info]: SSIM Mean Y:0.9843829

encoded 184729 frames, 2.86 fps, 13944.02 kb/s


//Notes//




Sprache: Dubs: German, English; Subs: German, English
Länge: 2h 8mn
Größe: 14.3 GiB (15x1000MiB Parts)
Gruppe: HDC
Quelle: BluRay


[Link nur für registrierte und freigeschaltete Benutzer sichtbar]

Enthaltene Dateien:

Sherlock.Holmes.2009.1080p.BluRay.AC3.DTS.DL.x264-HDC.mkv
Sherlock.Holmes.2009.1080p.BluRay.AC3.DTS.DL.x264-HDC.nfo

Download:

[Link nur für registrierte und freigeschaltete Benutzer sichtbar] Sherlock.Holmes.2009.1080p.BluRay.AC3.DTS.DL.x264-HDC ([Link nur für registrierte und freigeschaltete Benutzer sichtbar])

1fichier, MEGA, Share-Online, Uploaded