PDA

Archiv verlassen und diese Seite im Standarddesign anzeigen : Secretariat 2010 1080p BluRay DTS DL x264 - HDC



Zarroc
17.07.14, 07:00
Secretariat.2010.1080p.BluRay.DTS.DL.x264-HDC

[Link nur für registrierte und freigeschaltete Benutzer sichtbar]


Während ihr Bruder Jack (Dylan Walsh) die familiäre Pferdezucht verschachern will, möchte die vierfache Mutter Penny Chenery (Diane Lane) das Lebenswerk ihres dementen Vaters nicht einfach aufgeben. Entgegen aller Ratschläge entscheidet sich Penny, den Stall zu übernehmen, obwohl sie über keinerlei Erfahrung im Umgang mit den Tieren oder dem Pferderennsport verfügt. Als eine ihrer Stuten trächtig wird, sieht Penny ihre Chance, sich in dem männderdominierten Gewerbe zu etablieren. Das neugeborene Fohlen Secretariat soll zum zukünftigen Rennchampion herangezogen werden. Gemeinsam mit ihrer Sekretärin Miss Ham (Margo Martindale), dem fürsorglichen Tierpfleger Eddie Sweat (Nelsan Ellis) und dem exzentrischen Pferdetrainer Lucien Laurin (John Malkovich) versucht Penny, ihr Vorhaben in die Tat umzusetzen. Und schon bald soll ihr dies auch gelingen - Secretariat gewinnt das Kentucky Derby, das Preakness Stakes und das Belmont Stakes und wird somit zum ersten Triple-Crown-Gewinner seit 25 Jahren...

MediaInfo:

General
Unique ID : 185282054686504923365788509306402938194 (0x8B640696196AB6ECB5A4E1A0D2B09D52)
Complete name : Secretariat.2010.1080p.BluRay.DTS.DL.x264-HDC.mkv
Format : Matroska
Format version : Version 2
File size : 14.8 GiB
Duration : 2h 2mn
Overall bit rate : 17.3 Mbps
Encoded date : UTC 2011-10-10 18:01:08
Writing application : mkvmerge v5.0.0 ('Die Wahre Liebe') built on Sep 25 2011 20:33:49
Writing library : libebml v1.2.2 + libmatroska v1.3.0

Video
ID : 1
Format : AVC
Format/Info : Advanced Video Codec
Format profile : High@L4.1
Format settings, CABAC : Yes
Format settings, ReFrames : 5 frames
Codec ID : V_MPEG4/ISO/AVC
Duration : 2h 2mn
Bit rate : 14.3 Mbps
Width : 1 920 pixels
Height : 816 pixels
Display aspect ratio : 2.35:1
Frame rate mode : Constant
Frame rate : 23.976 fps
Color space : YUV
Chroma subsampling : 4:2:0
Bit depth : 8 bits
Scan type : Progressive
Bits/(Pixel*Frame) : 0.379
Stream size : 12.0 GiB (81%)
Writing library : x264 core 118 r2085 8a62835
Encoding settings : cabac=1 / ref=5 / deblock=1:-3:-3 / analyse=0x3:0x113 / me=umh / subme=9 / psy=1 / psy_rd=1.10:0.00 / mixed_ref=1 / me_range=32 / chroma_me=1 / trellis=2 / 8x8dct=1 / cqm=0 / deadzone=21,11 / fast_pskip=0 / chroma_qp_offset=-2 / threads=6 / sliced_threads=0 / nr=0 / decimate=0 / interlaced=0 / bluray_compat=0 / constrained_intra=0 / bframes=4 / b_pyramid=2 / b_adapt=2 / b_bias=0 / direct=3 / weightb=1 / open_gop=0 / weightp=2 / keyint=250 / keyint_min=23 / scenecut=40 / intra_refresh=0 / rc_lookahead=80 / rc=2pass / mbtree=1 / bitrate=14250 / ratetol=1.0 / qcomp=0.60 / qpmin=0 / qpmax=69 / qpstep=4 / cplxblur=20.0 / qblur=0.5 / ip_ratio=1.40 / aq=1:0.80
Language : English
Default : Yes
Forced : No

Audio #1
ID : 2
Format : DTS
Format/Info : Digital Theater Systems
Mode : 16
Format settings, Endianness : Big
Codec ID : A_DTS
Duration : 2h 2mn
Bit rate mode : Constant
Bit rate : 1 509 Kbps
Channel count : 6 channels
Channel positions : Front: L C R, Side: L R, LFE
Sampling rate : 48.0 KHz
Bit depth : 24 bits
Compression mode : Lossy
Stream size : 1.30 GiB (9%)
Title : German 5.1 DTS @ 1509 kbps
Language : German
Default : Yes
Forced : No

Audio #2
ID : 3
Format : DTS
Format/Info : Digital Theater Systems
Mode : 16
Format settings, Endianness : Big
Codec ID : A_DTS
Duration : 2h 2mn
Bit rate mode : Constant
Bit rate : 1 509 Kbps
Channel count : 6 channels
Channel positions : Front: L C R, Side: L R, LFE
Sampling rate : 48.0 KHz
Bit depth : 24 bits
Compression mode : Lossy
Stream size : 1.30 GiB (9%)
Title : English 5.1 DTS @ 1509 kbps
Language : English
Default : No
Forced : No

Text #1
ID : 4
Format : VobSub
Muxing mode : zlib
Codec ID : S_VOBSUB
Codec ID/Info : The same subtitle format used on DVDs
Title : German froced
Language : German
Default : Yes
Forced : Yes

Text #2
ID : 5
Format : VobSub
Muxing mode : zlib
Codec ID : S_VOBSUB
Codec ID/Info : The same subtitle format used on DVDs
Title : German
Language : German
Default : No
Forced : No

Text #3
ID : 6
Format : UTF-8
Codec ID : S_TEXT/UTF8
Codec ID/Info : UTF-8 Plain Text
Title : English
Language : English
Default : No
Forced : No

Menu
00:00:00.000 : de:Chapter 01
00:01:50.401 : de:Chapter 02
00:09:50.006 : de:Chapter 03
00:18:15.511 : de:Chapter 04
00:24:28.633 : de:Chapter 05
00:32:05.840 : de:Chapter 06
00:39:28.532 : de:Chapter 07
00:48:01.545 : de:Chapter 08
00:58:42.894 : de:Chapter 09
01:07:10.818 : de:Chapter 10
01:16:58.405 : de:Chapter 11
01:23:19.661 : de:Chapter 12
01:32:06.729 : de:Chapter 13
01:38:16.265 : de:Chapter 14
01:47:13.718 : de:Chapter 15
01:54:10.844 : de:Chapter 16
02:02:58.746 : de:Chapter 17



NFO:

HHHHHHHHH HHHHHHHHHDDDDDDDDDDDDD CCCCCCCCCCCCC
H:::::::H H:::::::HD::::::::::::DDD CCC::::::::::::C
H:::::::H H:::::::HD:::::::::::::::DD CC:::::::::::::::C
HH::::::H H::::::HHDDD:::::DDDDD:::::D C:::::CCCCCCCC::::C
H:::::H H:::::H D:::::D D:::::D C:::::C CCCCCC
H:::::H H:::::H D:::::D D:::::DC:::::C
H::::::HHHHH::::::H D:::::D D:::::DC:::::C
H:::::::::::::::::H D:::::D D:::::DC:::::C
H:::::::::::::::::H D:::::D D:::::DC:::::C
H::::::HHHHH::::::H D:::::D D:::::DC:::::C
H:::::H H:::::H D:::::D D:::::DC:::::C
H:::::H H:::::H D:::::D D:::::D C:::::C CCCCCC
HH::::::H H::::::HHDDD:::::DDDDD:::::D C:::::CCCCCCCC::::C
H:::::::H H:::::::HD:::::::::::::::DD CC:::::::::::::::C
H:::::::H H:::::::HD::::::::::::DDD CCC::::::::::::C
HHHHHHHHH HHHHHHHHHDDDDDDDDDDDDD CCCCCCCCCCCCC

--- What else ---
------------------------------------------------------------------


Proudly presents


Secretariat.2010.1080p.BluRay.DTS.DL.x264-HDC


Genre.
Drama | Family | History | Sport


Tagline.
The Impossible True Story


Plot.
Penny Chenery Tweedy and colleagues guide her long-shot but precocious stallion to set,
in 1973, the unbeaten record for winning the Triple Crown.


General Information.
Release.Name.........: Secretariat.2010.1080p.BluRay.DTS.DL.x264-HDC
Release.Date ........: 27.12.2011
RUNTIME..............: 02h:02m:59s
SIZE.................: 14.8 GB
VIDEO CODEC..........: x264 [@LVL4.1][DXVA]
FRAMERATE............: 23.976 fps
BITRATE..............: 14250 kbps [Source 22999 kbps]
RESOLUTION...........: 1920x816
PRIMARY.AUDIO........: German 5.1 DTS @ 1509 kbps
SECONDARY.AUDIO.1....: English 5.1 DTS @ 1509 kbps
SUBTITLES............: ger forced, ger, eng
CHAPTERS.............: Yes like BluRay
SOURCE...............: Secretariat 2010 1080p Blu-ray EUR AVC DTS-HD MA 5.1-Lycan
IMDB.RATING..........: 7.1/10 8.846 votes
IMDB.LINK............: [Link nur für registrierte und freigeschaltete Benutzer sichtbar]



x264 [info]: frame I:1443 Avg QP:15.76 size:350402
x264 [info]: frame P:42838 Avg QP:18.00 size:126807
x264 [info]: frame B:132638 Avg QP:20.22 size: 54331

x264 [info]: SSIM Mean Y:0.9729054

encoded 176919 frames, 1.69 fps, 14250.37 kb/s


Sprache: Dubs: German, English; Subs: German, English
Länge: 2h 2mn
Größe: 14.8 GiB (16x1000MiB Parts)
Gruppe: HDC
Quelle: BluRay


[Link nur für registrierte und freigeschaltete Benutzer sichtbar]

Enthaltene Dateien:

Secretariat.2010.1080p.BluRay.DTS.DL.x264-HDC.mkv
Secretariat.2010.1080p.BluRay.DTS.DL.x264-HDC.nfo

Download:

[Link nur für registrierte und freigeschaltete Benutzer sichtbar] Secretariat.2010.1080p.BluRay.DTS.DL.x264-HDC ([Link nur für registrierte und freigeschaltete Benutzer sichtbar])

1fichier, MEGA, Share-Online, Uploaded