PDA

Archiv verlassen und diese Seite im Standarddesign anzeigen : Schindlers Liste Schindlers List 1993 1080p BluRay DTS DL x264 - HDC



Zarroc
17.07.14, 06:59
Schindlers.List.1993.1080p.BluRay.DTS.DL.x264-HDC
aka "Schindlers Liste"

[Link nur für registrierte und freigeschaltete Benutzer sichtbar]


1939: Mithilfe jüdischen Kapitals gelingt es dem cleveren Geschäftsmann Oskar Schindler (Liam Neeson), in Krakau eine enteignete Emailfabrik zu kaufen, die fortan Feldgeschirr für den sich anbahnenden Krieg herstellt. Um seinen Profit zu maximieren, setzt er äußerst preiswerte jüdische Arbeitskräfte aus dem Krakauer Getto ein, die ihm auf Grund der kriegswichtigen Güter, die seine Fabrik produziert, zugestanden werden. Schindler versteht es, zu repräsentieren und Geschäftskontakte zu knüpfen, ist aber in Verwaltungs- und Koordinationsaufgaben auf seinen versierten Buchhalter Itzhak Stern (Ben Kingsley) angewiesen. In Kooperation ihrer Talente entwickelt sich die Emailfabrik zu einem florierenden Unternehmen, welches immer mehr Arbeitskräfte benötigt. Stern, dem in Personalfragen freie Hand gelassen wird, nutzt dies um möglichst viele Juden, zumeist denen, die aufgrund ihrer akademischen oder künstlerischen Vergangenheit oder einer Behinderung für die Industriearbeit nicht in Frage kämen, einen Arbeitsplatz in der Fabrik zu verschaffen. 1943 werden die Überlebenden des Krakauer Gettos in das Arbeitslager Krakau- Plaszów überführt. Hier erlebt Schindler mit, wie die Insassen auf unmenschliche Art und Weise behandelt werden, wie Wachsoldaten willkürlich Menschen erschießen. Dann soll auch dieses Lager geschlossen und die noch lebenden Juden zur Liquidierung nach Auschwitz gebracht werden. Schindler jedoch setzt alles daran, dies zu verhindern.

MediaInfo:

General
Unique ID : 245400380886373076205940792519743833942 (0xB89E64E9B8C062BC9CDB4D1892410756)
Complete name : Schindlers.List.1993.1080p.BluRay.DTS.DL.x264-HDC.mkv
Format : Matroska
Format version : Version 4 / Version 2
File size : 25.2 GiB
Duration : 3h 15mn
Overall bit rate : 18.5 Mbps
Encoded date : UTC 2013-04-18 07:25:15
Writing application : mkvmerge v6.1.0 ('Old Devil') built on Mar 31 2013 15:21:18
Writing library : libebml v1.3.0 + libmatroska v1.4.0

Video
ID : 1
Format : AVC
Format/Info : Advanced Video Codec
Format profile : High@L4.1
Format settings, CABAC : Yes
Format settings, ReFrames : 4 frames
Codec ID : V_MPEG4/ISO/AVC
Duration : 3h 15mn
Bit rate : 17.0 Mbps
Width : 1 920 pixels
Height : 1 040 pixels
Display aspect ratio : 1.85:1
Frame rate mode : Constant
Frame rate : 23.976 fps
Color space : YUV
Chroma subsampling : 4:2:0
Bit depth : 8 bits
Scan type : Progressive
Bits/(Pixel*Frame) : 0.356
Stream size : 22.8 GiB (90%)
Title : MPEG-4 AVC @ 17 Mbps
Writing library : x264 core 129 r2245 bc13772
Encoding settings : cabac=1 / ref=4 / deblock=1:-3:-2 / analyse=0x3:0x113 / me=umh / subme=9 / psy=1 / psy_rd=0.80:0.00 / mixed_ref=1 / me_range=32 / chroma_me=1 / trellis=2 / 8x8dct=1 / cqm=0 / deadzone=21,11 / fast_pskip=1 / chroma_qp_offset=-2 / threads=6 / lookahead_threads=1 / sliced_threads=0 / nr=0 / decimate=1 / interlaced=0 / bluray_compat=0 / constrained_intra=0 / bframes=5 / b_pyramid=2 / b_adapt=2 / b_bias=0 / direct=3 / weightb=1 / open_gop=0 / weightp=2 / keyint=250 / keyint_min=23 / scenecut=40 / intra_refresh=0 / rc_lookahead=120 / rc=2pass / mbtree=1 / bitrate=17042 / ratetol=1.0 / qcomp=0.80 / qpmin=0 / qpmax=69 / qpstep=4 / cplxblur=20.0 / qblur=0.5 / ip_ratio=1.40 / aq=1:0.80
Language : English
Default : Yes
Forced : No

Audio #1
ID : 2
Format : DTS
Format/Info : Digital Theater Systems
Mode : 16
Format settings, Endianness : Big
Codec ID : A_DTS
Duration : 3h 15mn
Bit rate mode : Constant
Bit rate : 768 Kbps
Channel count : 6 channels
Channel positions : Front: L C R, Side: L R, LFE
Sampling rate : 48.0 KHz
Bit depth : 24 bits
Compression mode : Lossy
Stream size : 1.05 GiB (4%)
Title : 5.1 DTS @ 755 kbps
Language : German
Default : Yes
Forced : Yes

Audio #2
ID : 3
Format : AC-3
Format/Info : Audio Coding 3
Mode extension : CM (complete main)
Format settings, Endianness : Big
Codec ID : A_AC3
Duration : 3h 15mn
Bit rate mode : Constant
Bit rate : 640 Kbps
Channel count : 6 channels
Channel positions : Front: L C R, Side: L R, LFE
Sampling rate : 48.0 KHz
Bit depth : 16 bits
Compression mode : Lossy
Stream size : 893 MiB (3%)
Title : 5.1 AC3 @ 640 kbps
Language : English
Default : No
Forced : No

Text #1
ID : 4
Format : PGS
Muxing mode : zlib
Codec ID : S_HDMV/PGS
Codec ID/Info : The same subtitle format used on BDs/HD-DVDs
Title : FORCED (PGS)
Language : German
Default : Yes
Forced : Yes

Text #2
ID : 5
Format : VobSub
Muxing mode : zlib
Codec ID : S_VOBSUB
Codec ID/Info : The same subtitle format used on DVDs
Title : FORCED (VOB)
Language : German
Default : No
Forced : No

Text #3
ID : 6
Format : VobSub
Muxing mode : zlib
Codec ID : S_VOBSUB
Codec ID/Info : The same subtitle format used on DVDs
Language : German
Default : No
Forced : No

Text #4
ID : 7
Format : VobSub
Muxing mode : zlib
Codec ID : S_VOBSUB
Codec ID/Info : The same subtitle format used on DVDs
Title : FORCED (VOB)
Language : English
Default : No
Forced : No

Text #5
ID : 8
Format : VobSub
Muxing mode : zlib
Codec ID : S_VOBSUB
Codec ID/Info : The same subtitle format used on DVDs
Language : English
Default : No
Forced : No

Text #6
ID : 9
Format : VobSub
Muxing mode : zlib
Codec ID : S_VOBSUB
Codec ID/Info : The same subtitle format used on DVDs
Language : Italian
Default : No
Forced : No

Text #7
ID : 10
Format : VobSub
Muxing mode : zlib
Codec ID : S_VOBSUB
Codec ID/Info : The same subtitle format used on DVDs
Language : Turkish
Default : No
Forced : No

Menu
00:00:00.000 : en:00:00:00.000
00:03:23.161 : en:00:03:23.161
00:10:12.153 : en:00:10:12.153
00:14:51.307 : en:00:14:51.307
00:17:28.714 : en:00:17:28.714
00:21:42.384 : en:00:21:42.384
00:23:48.010 : en:00:23:48.010
00:30:37.669 : en:00:30:37.669
00:34:23.728 : en:00:34:23.728
00:41:43.751 : en:00:41:43.751
00:44:16.737 : en:00:44:16.737
00:50:55.761 : en:00:50:55.761
00:55:09.431 : en:00:55:09.431
00:56:44.860 : en:00:56:44.860
01:13:44.754 : en:01:13:44.754
01:17:05.704 : en:01:17:05.704
01:26:02.115 : en:01:26:02.115
01:29:26.319 : en:01:29:26.319
01:32:01.182 : en:01:32:01.182
01:38:36.869 : en:01:38:36.869
01:43:19.777 : en:01:43:19.777
01:49:36.612 : en:01:49:36.612
01:55:45.981 : en:01:55:45.981
01:58:42.824 : en:01:58:42.824
02:02:59.789 : en:02:02:59.789
02:06:49.310 : en:02:06:49.310
02:10:11.637 : en:02:10:11.637
02:13:44.725 : en:02:13:44.725
02:18:21.376 : en:02:18:21.376
02:26:46.506 : en:02:26:46.506
02:34:15.621 : en:02:34:15.621
02:38:48.018 : en:02:38:48.018
02:41:15.416 : en:02:41:15.416
02:46:21.763 : en:02:46:21.763
02:48:12.332 : en:02:48:12.332
02:50:23.171 : en:02:50:23.171
02:55:28.393 : en:02:55:28.393
03:01:51.359 : en:03:01:51.359
03:05:06.721 : en:03:05:06.721
03:08:51.278 : en:03:08:51.278



NFO:

HHHHHHHHH HHHHHHHHHDDDDDDDDDDDDD CCCCCCCCCCCCC
H:::::::H H:::::::HD::::::::::::DDD CCC::::::::::::C
H:::::::H H:::::::HD:::::::::::::::DD CC:::::::::::::::C
HH::::::H H::::::HHDDD:::::DDDDD:::::D C:::::CCCCCCCC::::C
H:::::H H:::::H D:::::D D:::::D C:::::C CCCCCC
H:::::H H:::::H D:::::D D:::::DC:::::C
H::::::HHHHH::::::H D:::::D D:::::DC:::::C
H:::::::::::::::::H D:::::D D:::::DC:::::C
H:::::::::::::::::H D:::::D D:::::DC:::::C
H::::::HHHHH::::::H D:::::D D:::::DC:::::C
H:::::H H:::::H D:::::D D:::::DC:::::C
H:::::H H:::::H D:::::D D:::::D C:::::C CCCCCC
HH::::::H H::::::HHDDD:::::DDDDD:::::D C:::::CCCCCCCC::::C
H:::::::H H:::::::HD:::::::::::::::DD CC:::::::::::::::C
H:::::::H H:::::::HD::::::::::::DDD CCC::::::::::::C
HHHHHHHHH HHHHHHHHHDDDDDDDDDDDDD CCCCCCCCCCCCC

--- What else ---
------------------------------------------------------------------


Proudly presents


Schindlers.List.1993.1080p.BluRay.DTS.DL.x264-HDC


Directors
Steven Spielberg


Genre.
Biography | Drama | History | War


Tagline.
Whoever saves one life, saves the world entire.


Plot.
In Poland during World War II, Oskar Schindler gradually becomes concerned for
his Jewish workforce after witnessing their persecution by the Nazis.


General Information
RELEASE.DATE...........: 18.04.2013
RUNTIME................: 03h:15m:07s
SIZE...................: 25 GB
VIDEO.CODEC............: x264 [LVL4.1][DXVA]
FRAMERATE..............: 23.976 fps
BITRATE................: 17041 kbps [Source = 23118 kbps]
RESOLUTION.............: 1920x1040 [AR 1.85:1]
PRIMARY.AUDIO..........: German 5.1 DTS @ 755 kbps
SECONDARY.AUDIO........: English 5.1 AC3 @ 640 kbps
FORCED.SUBTITLE........: German,English (PGS & SUB)
SUBTITLES..............: German,English,Italian,Turkish
CHAPTERS...............: Yes
SOURCE.................: Schindler's List 1993 1080p EUR Blu-ray AVC DTS-HD MA 5.1
IMDB.RATING............: 8.9 (482,215 votes)
IMDB.LINK..............: [Link nur für registrierte und freigeschaltete Benutzer sichtbar]


//Notes//
Used Grad2funDB as filter to deband the source.
Again - Fuck the studios!
leave it to people who know their job!



x264 [info]: profile High, level 4.1

x264 [info]: frame I:1555 Avg QP:16.35 size:231043
x264 [info]: frame P:59908 Avg QP:18.84 size:113479
x264 [info]: frame B:219214 Avg QP:20.19 size: 81105
x264 [info]: consecutive B-frames: 1.2% 1.7% 8.8% 16.8% 24.1% 47.4%
x264 [info]: SSIM Mean Y:0.9791385 (16.807db)

encoded 280677 frames, 2.77 fps, 17041.41 kb/s








Sprache: Dubs: German, English; Subs: German, English, Italian, Turkish
Länge: 3h 15mn
Größe: 25.2 GiB (26x1000MiB Parts)
Gruppe: HDC
Quelle: BluRay


[Link nur für registrierte und freigeschaltete Benutzer sichtbar]

Enthaltene Dateien:

Schindlers.List.1993.1080p.BluRay.DTS.DL.x264-HDC.mkv
Schindlers.List.1993.1080p.BluRay.DTS.DL.x264-HDC.nfo

Download:

[Link nur für registrierte und freigeschaltete Benutzer sichtbar] Schindlers.List.1993.1080p.BluRay.DTS.DL.x264-HDC ([Link nur für registrierte und freigeschaltete Benutzer sichtbar])

1fichier, MEGA, Share-Online, Uploaded