PDA

Archiv verlassen und diese Seite im Standarddesign anzeigen : RoboCop 1987 Directors Cut Remastered 720p BluRay DTS DL x264 - HDC



Zarroc
17.07.14, 06:54
RoboCop.1987.Directors.Cut.Remastered.720p.BluRay. DTS.DL.x264-HDC

[Link nur für registrierte und freigeschaltete Benutzer sichtbar]


Die nähere Zukunft in den USA: Detroit ist so gut wie pleite, der Privatisierungswahn hat selbst vor der Polizei nicht Halt gemacht. Sie wurde vom Großkonzern OCP übernommen, der das eigentliche Sagen in der heruntergekommenen Stadt hat. Der Vorstandsvorsitzende von OCP (Dan O’Herlihy) plant den Bau eines neuen Detroits, Delta City genannt, aber vorher müsste die Kriminalitätsrate in der Stadt massiv gesenkt werden. Die ist mittlerweile so hoch, dass Polizisten nur noch in schwerer Panzerung ihren Streifendienst versehen und trotzdem jede Woche Kollegen beerdigen müssen. Der OCP-Vizepräsident, Dick Jones (Ronny Cox), präsentiert die Lösung: Ein Polizeiroboter soll Abhilfe schaffen...

MediaInfo:

General
Unique ID : 200122657288318807086571853861793051082 (0x968E38C956D32DDC86F2DE4EFB9431CA)
Complete name : RoboCop.1987.Directors.Cut.Remastered.720p.BluRay. DTS.DL.x264-HDC.mkv
Format : Matroska
Format version : Version 4 / Version 2
File size : 9.84 GiB
Duration : 1h 43mn
Overall bit rate : 13.6 Mbps
Encoded date : UTC 2014-02-05 14:48:42
Writing application : mkvmerge v6.7.0 ('Back to the Ground') 64bit built on Jan 8 2014 15:10:52
Writing library : libebml v1.3.0 + libmatroska v1.4.1

Video
ID : 1
Format : AVC
Format/Info : Advanced Video Codec
Format profile : High@L4.1
Format settings, CABAC : Yes
Format settings, ReFrames : 9 frames
Codec ID : V_MPEG4/ISO/AVC
Duration : 1h 43mn
Bit rate : 10.8 Mbps
Width : 1 280 pixels
Height : 692 pixels
Display aspect ratio : 1.85:1
Frame rate mode : Constant
Frame rate : 23.976 fps
Color space : YUV
Chroma subsampling : 4:2:0
Bit depth : 8 bits
Scan type : Progressive
Bits/(Pixel*Frame) : 0.508
Stream size : 7.84 GiB (80%)
Writing library : x264 core 142 r2389 956c8d8
Encoding settings : cabac=1 / ref=9 / deblock=1:-3:-4 / analyse=0x3:0x113 / me=umh / subme=9 / psy=1 / psy_rd=1.20:0.00 / mixed_ref=1 / me_range=24 / chroma_me=1 / trellis=2 / 8x8dct=1 / cqm=0 / deadzone=21,11 / fast_pskip=0 / chroma_qp_offset=-2 / threads=8 / lookahead_threads=1 / sliced_threads=0 / nr=0 / decimate=1 / interlaced=0 / bluray_compat=0 / constrained_intra=0 / bframes=5 / b_pyramid=2 / b_adapt=2 / b_bias=0 / direct=3 / weightb=1 / open_gop=0 / weightp=2 / keyint=250 / keyint_min=23 / scenecut=40 / intra_refresh=0 / rc_lookahead=88 / rc=2pass / mbtree=1 / bitrate=10788 / ratetol=1.0 / qcomp=0.80 / qpmin=0 / qpmax=69 / qpstep=4 / cplxblur=20.0 / qblur=0.5 / ip_ratio=1.40 / aq=1:1.10
Default : Yes
Forced : No

Audio #1
ID : 2
Format : DTS
Format/Info : Digital Theater Systems
Mode : 16
Format settings, Endianness : Big
Codec ID : A_DTS
Duration : 1h 43mn
Bit rate mode : Constant
Bit rate : 768 Kbps
Channel(s) : 6 channels
Channel positions : Front: L C R, Side: L R, LFE
Sampling rate : 48.0 KHz
Bit depth : 24 bits
Compression mode : Lossy
Stream size : 567 MiB (6%)
Title : 5.1 DTS @ 768kbps
Language : German
Default : Yes
Forced : No

Audio #2
ID : 3
Format : DTS
Format/Info : Digital Theater Systems
Mode : 16
Format settings, Endianness : Big
Codec ID : A_DTS
Duration : 1h 43mn
Bit rate mode : Constant
Bit rate : 1 509 Kbps
Channel(s) : 6 channels
Channel positions : Front: L C R, Side: L R, LFE
Sampling rate : 48.0 KHz
Bit depth : 24 bits
Compression mode : Lossy
Stream size : 1.09 GiB (11%)
Title : 5.1 DTS @ 1509kbps
Language : English
Default : No
Forced : No

Audio #3
ID : 4
Format : AC-3
Format/Info : Audio Coding 3
Mode extension : CM (complete main)
Format settings, Endianness : Big
Codec ID : A_AC3
Duration : 1h 43mn
Bit rate mode : Constant
Bit rate : 224 Kbps
Channel(s) : 2 channels
Channel positions : Front: L R
Sampling rate : 48.0 KHz
Bit depth : 16 bits
Compression mode : Lossy
Stream size : 165 MiB (2%)
Title : Commentary 2.0 AC3 @ 224kbps
Language : English
Default : No
Forced : No

Text #1
ID : 5
Format : VobSub
Codec ID : S_VOBSUB
Codec ID/Info : The same subtitle format used on DVDs
Title : VOB
Language : German
Default : No
Forced : No

Text #2
ID : 6
Format : PGS
Codec ID : S_HDMV/PGS
Codec ID/Info : The same subtitle format used on BDs/HD-DVDs
Title : PGS
Language : German
Default : No
Forced : No

Text #3
ID : 7
Format : VobSub
Codec ID : S_VOBSUB
Codec ID/Info : The same subtitle format used on DVDs
Title : VOB
Language : English
Default : No
Forced : No

Text #4
ID : 8
Format : PGS
Codec ID : S_HDMV/PGS
Codec ID/Info : The same subtitle format used on BDs/HD-DVDs
Title : PGS
Language : English
Default : No
Forced : No

Text #5
ID : 9
Format : VobSub
Codec ID : S_VOBSUB
Codec ID/Info : The same subtitle format used on DVDs
Title : VOB
Language : Finnish
Default : No
Forced : No

Text #6
ID : 10
Format : PGS
Codec ID : S_HDMV/PGS
Codec ID/Info : The same subtitle format used on BDs/HD-DVDs
Title : PGS
Language : Finnish
Default : No
Forced : No

Text #7
ID : 11
Format : VobSub
Codec ID : S_VOBSUB
Codec ID/Info : The same subtitle format used on DVDs
Title : VOB Forced
Language : German
Default : Yes
Forced : Yes

Text #8
ID : 12
Format : PGS
Codec ID : S_HDMV/PGS
Codec ID/Info : The same subtitle format used on BDs/HD-DVDs
Title : PGS Forced
Language : German
Default : No
Forced : No

Text #9
ID : 13
Format : VobSub
Codec ID : S_VOBSUB
Codec ID/Info : The same subtitle format used on DVDs
Title : VOB Commentary
Language : German
Default : No
Forced : No

Text #10
ID : 14
Format : PGS
Codec ID : S_HDMV/PGS
Codec ID/Info : The same subtitle format used on BDs/HD-DVDs
Title : PGS Commentary
Language : German
Default : No
Forced : No

Text #11
ID : 15
Format : VobSub
Codec ID : S_VOBSUB
Codec ID/Info : The same subtitle format used on DVDs
Title : VOB Commentary
Language : English
Default : No
Forced : No

Text #12
ID : 16
Format : PGS
Codec ID : S_HDMV/PGS
Codec ID/Info : The same subtitle format used on BDs/HD-DVDs
Title : PGS Commentary
Language : English
Default : No
Forced : No

Menu
00:00:00.000 : en:00:00:00.000
00:06:45.113 : en:00:06:45.113
00:14:07.555 : en:00:14:07.555
00:17:32.551 : en:00:17:32.551
00:26:40.516 : en:00:26:40.516
00:34:28.024 : en:00:34:28.024
00:40:32.805 : en:00:40:32.805
00:45:15.338 : en:00:45:15.338
00:49:46.650 : en:00:49:46.650
00:57:48.131 : en:00:57:48.131
01:01:41.239 : en:01:01:41.239
01:08:25.184 : en:01:08:25.184
01:15:59.889 : en:01:15:59.889
01:22:46.545 : en:01:22:46.545
01:33:53.962 : en:01:33:53.962
01:37:04.902 : en:01:37:04.902



NFO:

HHHHHHHHH HHHHHHHHHDDDDDDDDDDDDD CCCCCCCCCCCCC
H:::::::H H:::::::HD::::::::::::DDD CCC::::::::::::C
H:::::::H H:::::::HD:::::::::::::::DD CC:::::::::::::::C
HH::::::H H::::::HHDDD:::::DDDDD:::::D C:::::CCCCCCCC::::C
H:::::H H:::::H D:::::D D:::::D C:::::C CCCCCC
H:::::H H:::::H D:::::D D:::::DC:::::C
H::::::HHHHH::::::H D:::::D D:::::DC:::::C
H:::::::::::::::::H D:::::D D:::::DC:::::C
H:::::::::::::::::H D:::::D D:::::DC:::::C
H::::::HHHHH::::::H D:::::D D:::::DC:::::C
H:::::H H:::::H D:::::D D:::::DC:::::C
H:::::H H:::::H D:::::D D:::::D C:::::C CCCCCC
HH::::::H H::::::HHDDD:::::DDDDD:::::D C:::::CCCCCCCC::::C
H:::::::H H:::::::HD:::::::::::::::DD CC:::::::::::::::C
H:::::::H H:::::::HD::::::::::::DDD CCC::::::::::::C
HHHHHHHHH HHHHHHHHHDDDDDDDDDDDDD CCCCCCCCCCCCC

--- What else ---
------------------------------------------------------------------


Proudly presents


RoboCop.1987.Directors.Cut.Remastered.720p.BluRay. DTS.DL.x264-HDC


Genre.
Action | Crime | Sci-Fi


Tagline.
Part man. Part machine. All cop. The future of law enforcement.


Plot.
In a dystopic and crime-ridden Detroit, a terminally wounded cop returns to
the force as a powerful cyborg haunted by submerged memories.


General Information.
Release.Name.........: RoboCop.1987.Directors.Cut.Remastered.720p.BluRay. DTS.DL.x264-HDC
Release.Date ........: 05.02.2014
RUNTIME..............: 01h:43m:17s
SIZE.................: 9.83 GB
VIDEO CODEC..........: x264
FRAMERATE............: 23.976 fps
BITRATE..............: 10787 kbps [Source=27191 kbps]
RESOLUTION...........: 1280x692 [AR 1.85:1]
AUDIO.1..............: German 5.1 DTS @ 768 kbps
AUDIO.2..............: English 5.1 DTS @ 1509 kbps
COMMENTARY.AUDIO.....: English 2.0 AC3 @ 224 kbps
SUBTITLES.VOB&PGS....: Ger, Eng, Fin
CHAPTERS.............: Yes, like BluRay
SOURCE...............: RoboCop.1987.Directors.Cut.Remastered.BluRay.1080p .AVC.DTS.Remux-TvR thx
SOURCE.2.............: RoboCop.1987.Remastered.Directors.Cut.Blu-ray.CEE.1080p.AVC.DTS.5.1-HDCLUB
IMDB.RATING..........: 7,5/10 from 127 179 votes
IMDB.LINK............: [Link nur für registrierte und freigeschaltete Benutzer sichtbar]

x264 [info]: frame I:1303 Avg QP:16.97 size:136206
x264 [info]: frame P:30956 Avg QP:19.79 size: 69607
x264 [info]: frame B:116319 Avg QP:20.42 size: 51788
x264 [info]: SSIM Mean Y:0.9706740
encoded 148578 frames, 4.80 fps, 10787.43 kb/s

Sprache: Dubs: German, English; Subs: German, English, Finnish
Länge: 1h 43mn
Größe: 9.84 GiB (11x1000MiB Parts)
Gruppe: HDC
Quelle: BluRay


[Link nur für registrierte und freigeschaltete Benutzer sichtbar]

Enthaltene Dateien:

RoboCop.1987.Directors.Cut.Remastered.720p.BluRay. DTS.DL.x264-HDC.mkv
RoboCop.1987.Directors.Cut.Remastered.720p.BluRay. DTS.DL.x264-HDC.nfo

Download:

[Link nur für registrierte und freigeschaltete Benutzer sichtbar] RoboCop.1987.Directors.Cut.Remastered.720p.BluRay. DTS.DL.x264-HDC ([Link nur für registrierte und freigeschaltete Benutzer sichtbar])

1fichier, MEGA, Share-Online, Uploaded