PDA

Archiv verlassen und diese Seite im Standarddesign anzeigen : Robin Hood König der Diebe Robin Hood Prince of Thieves 1991 1080p BluRay AC3 DL x264 - HDC



Zarroc
17.07.14, 07:53
Robin.Hood.Prince.of.Thieves.1991.1080p.BluRay.AC3 .DL.x264-HDC
aka "Robin Hood - König der Diebe"

[Link nur für registrierte und freigeschaltete Benutzer sichtbar]


König Richard Löwenherz befindet sich mit der gesammelten Adelsjugend auf dem Weg ins Morgenland, um dort das Christentum zu verbreiten und außerdem Ruhm und Reichtum zu erlangen. Die Zeit der Abwesenheit der Führungselite machen sich nun Kerle aus der zweiten Reihe zu nutze, um das Land unter sich aufzuteilen, allen voran der fiese Sheriff des hübschen Nottinghams (Alan Rickman). Das Volk hungert ob der brutalen Steuerpolitik des Despoten. Doch als es besonders finster aussieht, erscheint ein alter Bekannter, frisch entflohen aus den schummrigen Kerkern des heimgesuchten Landes: Robin of Locksley (Kevin Costner), gestartet als jugendlicher Heißsporn, geläutert durch die Grauen, die er gesehen hat. Doch die Zeit des Kampfes ist für ihn noch nicht vorbei: Er findet seinen Vater ermordet, den Diener geblendet und das Schloss bis auf die Grundmauern niedergebrannt. Den Übrigen im Land geht es auch nicht besser, wie Robin und sein Gefährte Azeem (Morgan Freeman) von Maid Marian (Mary Elizabeth Mastrantonio) erfahren müssen. Doch viel Zeit zum Nachdenken bleibt nicht: Die Häscher des Sheriffs sind ihm bereits auf den Fersen, hat er doch verhindert, dass diese ein hungerndes Kind wegen Wilderei lynchen. Robin und Azeem verstecken sich an dem einzigen Ort, den die Schergen fürchten: dem dunklen Sherwood Forrest...

MediaInfo:

General
Unique ID : 243091701288195489546224596644494841556 (0xB6E1C2387A8F2BF89F69B84C72C416D4)
Complete name : Robin.Hood.Prince.of.Thieves.1991.1080p.BluRay.AC3 .DL.x264-HDC.mkv
Format : Matroska
Format version : Version 2
File size : 9.54 GiB
Duration : 2h 35mn
Overall bit rate : 8 807 Kbps
Encoded date : UTC 2009-09-01 02:03:32
Writing application : mkvmerge v2.9.5 ('Tu es le seul') built on Jun 7 2009 11:07:07
Writing library : libebml v0.7.7 + libmatroska v0.8.1

Video
ID : 1
Format : AVC
Format/Info : Advanced Video Codec
Format profile : High@L4.1
Format settings, CABAC : Yes
Format settings, ReFrames : 4 frames
Codec ID : V_MPEG4/ISO/AVC
Duration : 2h 35mn
Bit rate : 7 524 Kbps
Width : 1 920 pixels
Height : 1 080 pixels
Display aspect ratio : 16:9
Frame rate mode : Constant
Frame rate : 23.976 fps
Color space : YUV
Chroma subsampling : 4:2:0
Bit depth : 8 bits
Scan type : Progressive
Bits/(Pixel*Frame) : 0.151
Stream size : 7.96 GiB (83%)
Title : HDC - Robin Hood
Writing library : x264 core 72 r1235M 448b138
Encoding settings : cabac=1 / ref=4 / deblock=1:-2:-1 / analyse=0x3:0x113 / me=umh / subme=9 / psy=1 / psy_rd=1.0:0.6 / mixed_ref=1 / me_range=24 / chroma_me=1 / trellis=2 / 8x8dct=1 / cqm=0 / deadzone=21,11 / chroma_qp_offset=-4 / threads=3 / nr=0 / decimate=1 / mbaff=0 / bframes=3 / b_pyramid=0 / b_adapt=2 / b_bias=-5 / direct=3 / wpredb=1 / keyint=250 / keyint_min=25 / scenecut=40 / rc_lookahead=50 / rc=2pass / mbtree=1 / bitrate=7524 / ratetol=1.0 / qcomp=0.60 / qpmin=10 / qpmax=51 / qpstep=4 / cplxblur=20.0 / qblur=0.5 / vbv_maxrate=25000 / vbv_bufsize=25000 / ip_ratio=1.40 / aq=1:1.00 / zones=0,555,b=0.1/556,3370,b=0.2/216090,223069,b=0.1
Language : German
Default : Yes
Forced : No

Audio #1
ID : 2
Format : AC-3
Format/Info : Audio Coding 3
Mode extension : CM (complete main)
Format settings, Endianness : Big
Codec ID : A_AC3
Duration : 2h 35mn
Bit rate mode : Constant
Bit rate : 640 Kbps
Channel(s) : 6 channels
Channel positions : Front: L C R, Side: L R, LFE
Sampling rate : 48.0 KHz
Bit depth : 16 bits
Compression mode : Lossy
Stream size : 710 MiB (7%)
Title : AC3 5.1 @ 640 kpbs
Language : German
Default : Yes
Forced : No

Audio #2
ID : 3
Format : AC-3
Format/Info : Audio Coding 3
Mode extension : CM (complete main)
Format settings, Endianness : Big
Codec ID : A_AC3
Duration : 2h 35mn
Bit rate mode : Constant
Bit rate : 640 Kbps
Channel(s) : 6 channels
Channel positions : Front: L C R, Side: L R, LFE
Sampling rate : 48.0 KHz
Bit depth : 16 bits
Compression mode : Lossy
Stream size : 710 MiB (7%)
Title : AC3 5.1 @ 640 kpbs
Language : English
Default : No
Forced : No

Text #1
ID : 4
Format : UTF-8
Codec ID : S_TEXT/UTF8
Codec ID/Info : UTF-8 Plain Text
Title : HDC - Subtitle
Language : German
Default : Yes
Forced : No

Text #2
ID : 5
Format : UTF-8
Codec ID : S_TEXT/UTF8
Codec ID/Info : UTF-8 Plain Text
Title : HDC - Subtitle
Language : English
Default : No
Forced : No

Menu
00:00:00.000 : en:00:00:00.000
00:02:19.681 : en:00:02:19.681
00:05:57.774 : en:00:05:57.774
00:08:16.955 : en:00:08:16.955
00:10:59.659 : en:00:10:59.659
00:15:35.560 : en:00:15:35.560
00:20:08.290 : en:00:20:08.290
00:23:47.134 : en:00:23:47.134
00:27:07.417 : en:00:27:07.417
00:31:15.749 : en:00:31:15.749
00:34:46.084 : en:00:34:46.084
00:37:32.041 : en:00:37:32.041
00:41:24.732 : en:00:41:24.732
00:44:35.506 : en:00:44:35.506
00:47:40.566 : en:00:47:40.566
00:50:58.764 : en:00:50:58.764
00:56:04.861 : en:00:56:04.861
00:58:17.035 : en:00:58:17.035
01:02:18.735 : en:01:02:18.735
01:07:56.698 : en:01:07:56.698
01:14:22.333 : en:01:14:22.333
01:16:17.198 : en:01:16:17.198
01:18:49.308 : en:01:18:49.308
01:22:39.621 : en:01:22:39.621
01:25:47.434 : en:01:25:47.434
01:29:40.959 : en:01:29:40.959
01:32:10.525 : en:01:32:10.525
01:34:41.676 : en:01:34:41.676
01:37:30.511 : en:01:37:30.511
01:40:27.063 : en:01:40:27.063
01:43:45.386 : en:01:43:45.386
01:47:24.647 : en:01:47:24.647
01:52:12.184 : en:01:52:12.184
01:54:24.357 : en:01:54:24.357
01:59:35.835 : en:01:59:35.835
02:01:52.347 : en:02:01:52.347
02:04:26.417 : en:02:04:26.417
02:08:23.654 : en:02:08:23.654
02:12:02.123 : en:02:12:02.123
02:16:21.215 : en:02:16:21.215
02:18:29.384 : en:02:18:29.384
02:21:34.653 : en:02:21:34.653
02:23:26.723 : en:02:23:26.723
02:27:00.520 : en:02:27:00.520
02:28:11.174 : en:02:28:11.174
02:30:23.181 : en:02:30:23.181



NFO:

HHHHHHHHH HHHHHHHHHDDDDDDDDDDDDD CCCCCCCCCCCCC
H:::::::H H:::::::HD::::::::::::DDD CCC::::::::::::C
H:::::::H H:::::::HD:::::::::::::::DD CC:::::::::::::::C
HH::::::H H::::::HHDDD:::::DDDDD:::::D C:::::CCCCCCCC::::C
H:::::H H:::::H D:::::D D:::::D C:::::C CCCCCC
H:::::H H:::::H D:::::D D:::::DC:::::C
H::::::HHHHH::::::H D:::::D D:::::DC:::::C
H:::::::::::::::::H D:::::D D:::::DC:::::C
H:::::::::::::::::H D:::::D D:::::DC:::::C
H::::::HHHHH::::::H D:::::D D:::::DC:::::C
H:::::H H:::::H D:::::D D:::::DC:::::C
H:::::H H:::::H D:::::D D:::::D C:::::C CCCCCC
HH::::::H H::::::HHDDD:::::DDDDD:::::D C:::::CCCCCCCC::::C
H:::::::H H:::::::HD:::::::::::::::DD CC:::::::::::::::C
H:::::::H H:::::::HD::::::::::::DDD CCC::::::::::::C
HHHHHHHHH HHHHHHHHHDDDDDDDDDDDDD CCCCCCCCCCCCC

--- What else ---
------------------------------------------------------------------


Proudly presents

Robin.Hood.Prince.of.Thieves.1991.1080p.BluRay.AC3 .DL.x264-HDC


//Genre//

Action | Adventure |Drama |Romance


//Tagline//

For the good of all men, and the love of one woman,
he fought to uphold justice by breaking the law



//Plot//

Die legendenumwobenen Abenteuer des englischen Volkshelden Robin Hood,
der von den Reichen stahl, um es den Armen und Entrechteten zu geben.
Sein Kampf gegen den Sheriff von Nottingham, seine Liebe zur schönen
Maid Marian und seine Loyalität zu König Richard Löwenherz sind Legende.



//General Information//

Release Name..: Robin.Hood.Prince.of.Thieves.1991.1080p.BluRay.AC3 .DL.x264-HDC
Release Date..: 01.09.2009
Runtime.......: 02h:34min
Size..........: 9.54 GB
Video Codec...: x264 [LVL4.1][DXVA][AVCHD]
Framerate.....: 23.976 fps
Bitrate.......: ~7500 kbp/s
Resolution....: 1920x1080 [AR 1,85:1]
Audio 1.......: German 5.1 AC3 @ 640 kbps
Audio 2.......: English 5.1 AC3 @ 640 kbps
Chapters......: YES like BluRay
Subtitles.....: German ( Forced ) / English
Source........: Robin.Hood.EURO.BluRay
Encooder......: Pho3n1x
IMDB Rating...: 6.7/10 [48,091 votes]
IMDB Link.....: [Link nur für registrierte und freigeschaltete Benutzer sichtbar]


//x264//

x264 [info]: profile High, level 4.1
x264 [info]: slice I:4220 Avg QP:23.61 size:108679
x264 [info]: slice P:101396 Avg QP:25.33 size: 53799
x264 [info]: slice B:117454 Avg QP:26.76 size: 24153


//Notes//

Playable on / Ps3 / TViX / Popcornhour / WD HD Player




Sprache: Dubs: German, English; Subs: German, English
Länge: 2h 35mn
Größe: 9.54 GiB (11x1000MiB Parts)
Gruppe: HDC
Quelle: BluRay


[Link nur für registrierte und freigeschaltete Benutzer sichtbar]

Enthaltene Dateien:

Robin.Hood.Prince.of.Thieves.1991.1080p.BluRay.AC3 .DL.x264-HDC.mkv
Robin.Hood.Prince.of.Thieves.1991.1080p.BluRay.AC3 .DL.x264-HDC.nfo

Download:

[Link nur für registrierte und freigeschaltete Benutzer sichtbar] Robin.Hood.Prince.of.Thieves.1991.1080p.BluRay.AC3 .DL.x264-HDC ([Link nur für registrierte und freigeschaltete Benutzer sichtbar])

1fichier, MEGA, Share-Online, Uploaded