PDA

Archiv verlassen und diese Seite im Standarddesign anzeigen : Resident Evil Apocalypse 2004 Extended Cut 1080p BluRay DTS DL x264 - HDC



Zarroc
17.07.14, 06:49
Resident.Evil.Apocalypse.2004.Extended.Cut.1080p.B luRay.DTS.DL.x264-HDC

[Link nur für registrierte und freigeschaltete Benutzer sichtbar]


Niemand scheint mehr da zu sein. Nachdem Alice (Milla Jovovich) im Krankenhaus aufgewacht ist, bietet sich ihr ein Bild der Zerstörung: Die Straßen sind menschenleer, überall sieht man Blutspuren, kaputte Autos und eingeschlagene Fenster. Anscheinend sind die Zombies aus ihrem unterirdischen Gefängnis entkommen. Racoon City liegt in Trümmern, die meisten Menschen sind durch Bisse und anschließende Infektion selbst zu Zombies geworden. Die Stadtgrenze ist von der Umbrella Corporation abgesperrt, niemand darf raus. Frisch bewaffnet zieht Alice los, um der Ursache für die Katastrophe auf den Grund zu gehen. Zusammen mit anderen Flüchtlingen wie Ex-Cop Jill Valentine (Sienna Guillory) und Elitekämpfer Oliveira (Oded Fehr) erhält sie die Chance zur Flucht...

MediaInfo:

General
Unique ID : 222146162490089949688057806042592190972 (0xA71FCB6D55390634B12CAC9FC77421FC)
Complete name : Resident.Evil.Apocalypse.2004.Extended.Cut.1080p.B luRay.DTS.DL.x264-HDC.mkv
Format : Matroska
Format version : Version 2
File size : 10.4 GiB
Duration : 1h 37mn
Overall bit rate mode : Variable
Overall bit rate : 15.3 Mbps
Encoded date : UTC 2010-02-11 22:25:54
Writing application : mkvmerge v3.1.0 ('Happy up here') gebaut am Jan 19 2010 12:09:24
Writing library : libebml v0.7.9 + libmatroska v0.8.1

Video
ID : 1
Format : AVC
Format/Info : Advanced Video Codec
Format profile : High@L4.1
Format settings, CABAC : Yes
Format settings, ReFrames : 5 frames
Codec ID : V_MPEG4/ISO/AVC
Duration : 1h 37mn
Bit rate : 12.0 Mbps
Width : 1 920 pixels
Height : 800 pixels
Display aspect ratio : 2.40:1
Frame rate mode : Constant
Frame rate : 23.976 fps
Color space : YUV
Chroma subsampling : 4:2:0
Bit depth : 8 bits
Scan type : Progressive
Bits/(Pixel*Frame) : 0.327
Stream size : 8.02 GiB (77%)
Title : 10 Mbps AVC MPEG-4
Writing library : x264 core 84 r1400M 20fa784
Encoding settings : cabac=1 / ref=5 / deblock=1:-3:-3 / analyse=0x3:0x113 / me=umh / subme=9 / psy=1 / psy_rd=1.4:0.0 / mixed_ref=1 / me_range=24 / chroma_me=1 / trellis=2 / 8x8dct=1 / cqm=0 / deadzone=21,11 / fast_pskip=1 / chroma_qp_offset=-2 / threads=6 / sliced_threads=0 / nr=0 / decimate=1 / mbaff=0 / constrained_intra=0 / bframes=5 / b_pyramid=2 / b_adapt=2 / b_bias=0 / direct=3 / wpredb=1 / wpredp=2 / keyint=250 / keyint_min=25 / scenecut=40 / intra_refresh=0 / rc_lookahead=80 / rc=2pass / mbtree=1 / bitrate=12033 / ratetol=1.0 / qcomp=0.80 / qpmin=10 / qpmax=51 / qpstep=4 / cplxblur=20.0 / qblur=0.5 / ip_ratio=1.40 / aq=1:0.90 / pulldown=0 / nal_hrd=0
Language : German
Default : No
Forced : No

Audio #1
ID : 2
Format : DTS
Format/Info : Digital Theater Systems
Mode : 16
Format settings, Endianness : Big
Codec ID : A_DTS
Duration : 1h 37mn
Bit rate mode : Constant
Bit rate : 1 509 Kbps
Channel(s) : 6 channels
Channel positions : Front: L C R, Side: L R, LFE
Sampling rate : 48.0 KHz
Bit depth : 24 bits
Compression mode : Lossy
Stream size : 1.03 GiB (10%)
Title : 5.1 DTS @ 1510 kbps
Language : German
Default : Yes
Forced : Yes

Audio #2
ID : 3
Format : DTS
Format/Info : Digital Theater Systems
Mode : 16
Format settings, Endianness : Big
Codec ID : A_DTS
Duration : 1h 37mn
Bit rate mode : Constant
Bit rate : 1 509 Kbps
Channel(s) : 6 channels
Channel positions : Front: L C R, Side: L R, LFE
Sampling rate : 48.0 KHz
Bit depth : 24 bits
Compression mode : Lossy
Stream size : 1.03 GiB (10%)
Title : 5.1 DTS @ 1510 kbps
Language : English
Default : No
Forced : No

Audio #3
ID : 4
Format : Vorbis
Format settings, Floor : 1
Codec ID : A_VORBIS
Duration : 1h 37mn
Bit rate mode : Variable
Bit rate : 80.0 Kbps
Channel(s) : 2 channels
Sampling rate : 48.0 KHz
Compression mode : Lossy
Stream size : 56.0 MiB (1%)
Title : 2.0 OGG @ 80 kbps - commentary actors
Writing library : aoTuV b5c (UTC 2008-12-15)
Language : English
Default : No
Forced : No

Audio #4
ID : 5
Format : Vorbis
Format settings, Floor : 1
Codec ID : A_VORBIS
Duration : 1h 37mn
Bit rate mode : Variable
Bit rate : 80.0 Kbps
Channel(s) : 2 channels
Sampling rate : 48.0 KHz
Compression mode : Lossy
Stream size : 56.0 MiB (1%)
Title : 2.0 OGG @ 80 kbps - commentary director & producers
Writing library : aoTuV b5c (UTC 2008-12-15)
Language : English
Default : No
Forced : No

Audio #5
ID : 6
Format : Vorbis
Format settings, Floor : 1
Codec ID : A_VORBIS
Duration : 1h 37mn
Bit rate mode : Variable
Bit rate : 80.0 Kbps
Channel(s) : 2 channels
Sampling rate : 48.0 KHz
Compression mode : Lossy
Stream size : 56.0 MiB (1%)
Title : 2.0 OGG @ 80 kbps - commentary producers
Writing library : aoTuV b5c (UTC 2008-12-15)
Language : English
Default : No
Forced : No

Text #1
ID : 7
Format : UTF-8
Codec ID : S_TEXT/UTF8
Codec ID/Info : UTF-8 Plain Text
Language : German
Default : No
Forced : No

Text #2
ID : 8
Format : UTF-8
Codec ID : S_TEXT/UTF8
Codec ID/Info : UTF-8 Plain Text
Language : English
Default : No
Forced : No

Menu
00:00:00.000 : en:00:00:00.000
00:04:34.691 : en:00:04:34.691
00:07:24.194 : en:00:07:24.194
00:13:04.617 : en:00:13:04.617
00:17:04.482 : en:00:17:04.482
00:20:08.082 : en:00:20:08.082
00:27:45.455 : en:00:27:45.455
00:32:20.814 : en:00:32:20.814
00:35:26.166 : en:00:35:26.166
00:41:13.846 : en:00:41:13.846
00:46:14.188 : en:00:46:14.188
00:51:02.017 : en:00:51:02.017
00:56:25.716 : en:00:56:25.716
01:01:18.508 : en:01:01:18.508
01:05:53.199 : en:01:05:53.199
01:09:57.318 : en:01:09:57.318
01:15:33.988 : en:01:15:33.988
01:20:01.630 : en:01:20:01.630
01:24:04.706 : en:01:24:04.706
01:31:03.124 : en:01:31:03.124



NFO:

HHHHHHHHH HHHHHHHHHDDDDDDDDDDDDD CCCCCCCCCCCCC
H:::::::H H:::::::HD::::::::::::DDD CCC::::::::::::C
H:::::::H H:::::::HD:::::::::::::::DD CC:::::::::::::::C
HH::::::H H::::::HHDDD:::::DDDDD:::::D C:::::CCCCCCCC::::C
H:::::H H:::::H D:::::D D:::::D C:::::C CCCCCC
H:::::H H:::::H D:::::D D:::::DC:::::C
H::::::HHHHH::::::H D:::::D D:::::DC:::::C
H:::::::::::::::::H D:::::D D:::::DC:::::C
H:::::::::::::::::H D:::::D D:::::DC:::::C
H::::::HHHHH::::::H D:::::D D:::::DC:::::C
H:::::H H:::::H D:::::D D:::::DC:::::C
H:::::H H:::::H D:::::D D:::::D C:::::C CCCCCC
HH::::::H H::::::HHDDD:::::DDDDD:::::D C:::::CCCCCCCC::::C
H:::::::H H:::::::HD:::::::::::::::DD CC:::::::::::::::C
H:::::::H H:::::::HD::::::::::::DDD CCC::::::::::::C
HHHHHHHHH HHHHHHHHHDDDDDDDDDDDDD CCCCCCCCCCCCC

--- What else ---
------------------------------------------------------------------


Proudly presents


Resident.Evil.Apocalypse.2004.Extended.Cut.1080p.B luRay.DTS.DL.x264-HDC


Director.
Alexander Witt


Genre.
Action | Horror | Sci-Fi


Tagline.
You're all going to die


Plot.
After an outbreak in a top-secret facility, Umbrella ponders on covering
up their mistakes by releasing the deadly Nemesis to eliminate surviving
STARS members in Raccoon City.


General Information
Runtime.......: 01h:37m:47s
Size..........: 10.4 GB
Video Codec...: x264 [LVL4.1][DXVA]
Framerate.....: 23.976 fps
Bitrate.......: 10032 kbps
Resolution....: 1920x800 [AR 2.40:1]
Audio.1.......: German 5.1 DTS @ 1510 kbps
Audio.2.......: English 5.1 DTS @ 1510 kbps
Commentary.1..: English 2.0 OGG @ 80 kbps - actors
Commentary.2..: English 2.0 OGG @ 80 kbps - director & producers
Commentary.3..: English 2.0 OGG @ 80 kbps - producers
Chapters......: Yes
Subtitles.....: German, English
Source........: Resident Evil: Apocalypse 2004 Extended Cut 1080p Blu-Ray Ger MPEG-2 DTS-HD 5.1
IMDB Rating...: 5.8/10 [48,120 votes]
IMDB Link.....: [Link nur für registrierte und freigeschaltete Benutzer sichtbar]


x264 [info]: profile High, level 4.1

x264 [info]: frame I:1849 Avg QP:15.35 size:137513
x264 [info]: frame P:36961 Avg QP:17.18 size: 78776
x264 [info]: frame B:101879 Avg QP:18.38 size: 55553
x264 [info]: SSIM Mean Y:0.9844900

encoded 140689 frames, 3.15 fps, 10032.29 kb/s









Sprache: Dubs: German, English; Subs: German, English
Länge: 1h 37mn
Größe: 10.4 GiB (11x1000MiB Parts)
Gruppe: HDC
Quelle: BluRay


[Link nur für registrierte und freigeschaltete Benutzer sichtbar]

Enthaltene Dateien:

Resident.Evil.Apocalypse.2004.Extended.Cut.1080p.B luRay.DTS.DL.x264-HDC.mkv
Resident.Evil.Apocalypse.2004.Extended.Cut.1080p.B luRay.DTS.DL.x264-HDC.nfo

Download:

[Link nur für registrierte und freigeschaltete Benutzer sichtbar] Resident.Evil.Apocalypse.2004.Extended.Cut.1080p.B luRay.DTS.DL.x264-HDC ([Link nur für registrierte und freigeschaltete Benutzer sichtbar])

1fichier, MEGA, Share-Online, Uploaded