PDA

Archiv verlassen und diese Seite im Standarddesign anzeigen : Red Sonja 1985 1080p BluRay AC3 ML x264 - HDC



Zarroc
17.07.14, 06:48
Red.Sonja.1985.1080p.BluRay.AC3.ML.x264-HDC

[Link nur für registrierte und freigeschaltete Benutzer sichtbar]


Nachdem Red Sonja (Brigitte Nielsen) Königin Gedren (Sandahl Bergman) angegriffen hat, wird ihre Familie von den Anhängern der Königin ermordet und sie selber vergewaltigt. In der darauf folgenden Nacht erlebt Sonja eine Vision und schwört seither auf Rache. Währenddessen gelangt Königin Gedren in den Besitz eines Talismans, der eine ungeheure Zerstörungskraft in sich birgt und nur von Frauen angefasst werden kann. Die Priesterinnen des Tempels, aus dem sie den Talisman gestohlen hat, lässt sie daraufhin umbringen. Doch eine von ihnen, Varna (Janet Agren) kann fliehen und wird, nachdem sie von ihren Verfolgern verwundet wurde, von dem kräftigen Kalidor (Arnold Schwarzenegger) gerettet. Es stellt sich heraus, dass Varna die Schwester von Sonja ist und gemeinsam machen sie sich auf die Suche nach ihr.

MediaInfo:

General
Unique ID : 218443821411916656441709863962765318986 (0xA456BFEB2EDD6711B4721A42FCBE5B4A)
Complete name : Red.Sonja.1985.1080p.BluRay.AC3.ML.x264-HDC.mkv
Format : Matroska
Format version : Version 2
File size : 8.46 GiB
Duration : 1h 28mn
Overall bit rate : 13.6 Mbps
Encoded date : UTC 2011-12-23 23:04:36
Writing application : mkvmerge v5.1.0 ('And so it goes') built on Nov 28 2011 23:58:28
Writing library : libebml v1.2.3 + libmatroska v1.3.0

Video
ID : 1
Format : AVC
Format/Info : Advanced Video Codec
Format profile : High@L4.1
Format settings, CABAC : Yes
Format settings, ReFrames : 5 frames
Muxing mode : Header stripping
Codec ID : V_MPEG4/ISO/AVC
Duration : 1h 28mn
Bit rate : 11.2 Mbps
Width : 1 920 pixels
Height : 820 pixels
Display aspect ratio : 2.35:1
Frame rate mode : Constant
Frame rate : 24.000 fps
Color space : YUV
Chroma subsampling : 4:2:0
Bit depth : 8 bits
Scan type : Progressive
Bits/(Pixel*Frame) : 0.297
Stream size : 6.79 GiB (80%)
Title : HDC Red Sonja
Writing library : x264 core 119 r2106+636 fcb18f7
Encoding settings : cabac=1 / ref=5 / deblock=1:-2:-2 / analyse=0x3:0x113 / me=umh / subme=11 / psy=1 / fade_compensate=0.00 / psy_rd=1.13:0.05 / mixed_ref=1 / me_range=64 / chroma_me=1 / trellis=2 / 8x8dct=1 / cqm=0 / deadzone=6,6 / fast_pskip=0 / chroma_qp_offset=-3 / threads=6 / sliced_threads=0 / nr=0 / decimate=0 / interlaced=0 / bluray_compat=0 / constrained_intra=0 / fgo=0 / bframes=3 / b_pyramid=2 / b_adapt=2 / b_bias=0 / direct=3 / weightb=1 / open_gop=1 / weightp=2 / keyint=250 / keyint_min=24 / scenecut=40 / intra_refresh=0 / rc=2pass / mbtree=0 / bitrate=11214 / ratetol=1.0 / qcomp=0.80 / qpmin=0 / qpmax=69 / qpstep=4 / cplxblur=20.0 / qblur=0.5 / ip_ratio=1.10 / pb_ratio=1.10 / aq=3:0.50
Language : German
Default : No
Forced : No

Audio #1
ID : 2
Format : AC-3
Format/Info : Audio Coding 3
Mode extension : CM (complete main)
Format settings, Endianness : Big
Muxing mode : Header stripping
Codec ID : A_AC3
Duration : 1h 28mn
Bit rate mode : Constant
Bit rate : 448 Kbps
Channel(s) : 2 channels
Channel positions : Front: L R
Sampling rate : 48.0 KHz
Bit depth : 16 bits
Compression mode : Lossy
Stream size : 285 MiB (3%)
Title : AC3 2.0 @ 448 kpbs Encode From DTSMA
Language : German
Default : No
Forced : No

Audio #2
ID : 3
Format : DTS
Format/Info : Digital Theater Systems
Mode : 16
Format settings, Endianness : Big
Muxing mode : Header stripping
Codec ID : A_DTS
Duration : 1h 28mn
Bit rate mode : Constant
Bit rate : 1 509 Kbps
Channel(s) : 6 channels
Channel positions : Front: L C R, Side: L R, LFE
Sampling rate : 48.0 KHz
Bit depth : 24 bits
Compression mode : Lossy
Stream size : 959 MiB (11%)
Title : DTS 5.1 @ 1510 kbps core DTSMA
Language : English
Default : No
Forced : No

Audio #3
ID : 4
Format : AC-3
Format/Info : Audio Coding 3
Mode extension : CM (complete main)
Format settings, Endianness : Big
Muxing mode : Header stripping
Codec ID : A_AC3
Duration : 1h 28mn
Bit rate mode : Constant
Bit rate : 448 Kbps
Channel(s) : 2 channels
Channel positions : Front: L R
Sampling rate : 48.0 KHz
Bit depth : 16 bits
Compression mode : Lossy
Stream size : 285 MiB (3%)
Title : AC3 2.0 @ 448 kpbs Encode From DTSMA
Language : Italian
Default : No
Forced : No

Text #1
ID : 5
Format : VobSub
Muxing mode : zlib
Codec ID : S_VOBSUB
Codec ID/Info : The same subtitle format used on DVDs
Title : German
Language : German
Default : No
Forced : No

Text #2
ID : 6
Format : VobSub
Muxing mode : zlib
Codec ID : S_VOBSUB
Codec ID/Info : The same subtitle format used on DVDs
Title : Italian Forced
Language : Italian
Default : No
Forced : No

Text #3
ID : 7
Format : VobSub
Muxing mode : zlib
Codec ID : S_VOBSUB
Codec ID/Info : The same subtitle format used on DVDs
Title : Italian
Language : Italian
Default : No
Forced : No

Menu
00:00:00.000 : en:The vision
00:07:06.417 : en:Battle of the talisman
00:15:37.708 : en:A woman's touch
00:19:23.458 : en:The grand master
00:23:47.792 : en:The death of Varna
00:27:52.583 : en:Prince Tarn
00:34:47.542 : en:The gate of Brytag
00:37:26.250 : en:The rescue
00:42:18.167 : en:Queen Gedren's castle
00:48:27.333 : en:A real man
00:57:03.500 : en:The Ichtyan cavern
01:03:40.833 : en:The killing machine
01:07:55.000 : en:A fair fight
01:12:25.625 : en:Entering the castle
01:17:42.083 : en:Ikol the spider



NFO:

HHHHHHHHH HHHHHHHHHDDDDDDDDDDDDD CCCCCCCCCCCCC
H:::::::H H:::::::HD::::::::::::DDD CCC::::::::::::C
H:::::::H H:::::::HD:::::::::::::::DD CC:::::::::::::::C
HH::::::H H::::::HHDDD:::::DDDDD:::::D C:::::CCCCCCCC::::C
H:::::H H:::::H D:::::D D:::::D C:::::C CCCCCC
H:::::H H:::::H D:::::D D:::::DC:::::C
H::::::HHHHH::::::H D:::::D D:::::DC:::::C
H:::::::::::::::::H D:::::D D:::::DC:::::C
H:::::::::::::::::H D:::::D D:::::DC:::::C
H::::::HHHHH::::::H D:::::D D:::::DC:::::C
H:::::H H:::::H D:::::D D:::::DC:::::C
H:::::H H:::::H D:::::D D:::::D C:::::C CCCCCC
HH::::::H H::::::HHDDD:::::DDDDD:::::D C:::::CCCCCCCC::::C
H:::::::H H:::::::HD:::::::::::::::DD CC:::::::::::::::C
H:::::::H H:::::::HD::::::::::::DDD CCC::::::::::::C
HHHHHHHHH HHHHHHHHHDDDDDDDDDDDDD CCCCCCCCCCCCC

--- What else ---
------------------------------------------------------------------


Proudly presents

Red.Sonja.1985.1080p.BluRay.AC3.ML.x264-HDC



//Genre//

Action | Adventure | Fantasy



//Tagline//

A woman and a warrior that became a legend.



//Plot//

The tyrant Gedren seeks the total power in a world of barbarism. She attacks
and kills the keepers of a powerful talisman just before it is destroyed.
Gedren then uses the power of the talisman in her raid of the city Hablac.
Red Sonja, sister of the keeper, sets out with her magic sword to overthrow
Gedren. The talisman's master Kalidor follows to protect her. Of course they
fall in love - however Red Sonja's power bases on the oath to never give
herself to any man...




//General Information//

Release Name..: Red.Sonja.1985.1080p.BluRay.AC3.ML.x264-HDC
Release Date..: 23.12.2011
Runtime.......: 88 mins.
Size..........: 8.45 GB
Video Codec...: x264 [LVL4.1][DXVA]
Framerate.....: 24.000 fps
Bitrate.......: ~ 11200 kbps
Resolution....: 1920x820 [AR 2,35:1]
Audio 1.......: German 2.0 Ac3 @ 448 kbps Encode DTSMA
Audio 2.......: English 5.1 DTS @ 1510 kbps core DTSMA
Audio 3.......: Italian 2.0 AC3 448 kbps Encode DTSMA
Chapters......: YES like BluRay ( English Named)
Subtitle.VS...: German
Subtitle.VS...: Italian / Italian Forced
Source........: Red Sonja Euro BluRay
IMDB Rating...: 4.5/10 [14,768votes]
IMDB Link.....: [Link nur für registrierte und freigeschaltete Benutzer sichtbar]


//x264//

x264 [info]: profile High, level 4.1
x264 [info]: frame I:1052 Avg QP:19.26 size:173056
x264 [info]: frame P:40457 Avg QP:20.09 size: 77431
x264 [info]: frame B:86457 Avg QP:20.63 size: 48103
x264 [info]: consecutive B-frames: 2.1% 5.9% 52.6% 39.3%

encoded 127966 frames, 1.30 fps, 11213.23 kb/s


//Notes//

Sprache: Dubs: German, English, Italian; Subs: German, Italian
Länge: 1h 28mn
Größe: 8.46 GiB (9x1000MiB Parts)
Gruppe: HDC
Quelle: BluRay


[Link nur für registrierte und freigeschaltete Benutzer sichtbar]

Enthaltene Dateien:

Red.Sonja.1985.1080p.BluRay.AC3.ML.x264-HDC.mkv
Red.Sonja.1985.1080p.BluRay.AC3.ML.x264-HDC.nfo

Download:

[Link nur für registrierte und freigeschaltete Benutzer sichtbar] Red.Sonja.1985.1080p.BluRay.AC3.ML.x264-HDC ([Link nur für registrierte und freigeschaltete Benutzer sichtbar])

1fichier, MEGA, Share-Online, Uploaded