PDA

Archiv verlassen und diese Seite im Standarddesign anzeigen : Zwielicht Primal Fear 1996 1080p BluRay AC3D DL x264 - HDC



Zarroc
17.07.14, 06:47
Primal.Fear.1996.1080p.BluRay.AC3D.DL.x264-HDC
aka "Zwielicht"

[Link nur für registrierte und freigeschaltete Benutzer sichtbar]


Jemand hat den Erzbischof von Chicago auf brutale Weise ermordet. Der Polizei gelingt es, rasch einen Hauptverdächtigen auszumachen: den Ministranten Aaron Stampler (Edward Norton), der von Beamten nahe des Tatortes aufgegriffen wird - blutverschmiert. Star-Verteidiger Martin Vail (Richard Gere) übernimmt die Verteidigung des mittellosen, von erdrückenden Beweisen belasteten Hauptverdächtigen, weil er sein öffentliches Profil schärfen will. Vor Gericht trifft er auf seine ehemalige Geliebte, die Staatsanwältin Janet Venable (Laura Linney). Vorerst nur am Prestige und nicht an der Schuldfrage interessiert, gerät Vail mehr und mehr in den Bann seines psychisch labilen Mandanten, weshalb er die Psychologin Dr. Molly Arrington (Frances McDormand) um Unterstützung bittet. Die fördert Aarons prägende Jugenderfahrungen zutage, bei denen kirchliche Pädophilie eine unheilvolle Rolle spielt...

MediaInfo:

General
Unique ID : 221938439065230684661325779541154156216 (0xA6F7C9DF1C005317AF99FE6F98494EB8)
Complete name : Primal.Fear.1996.1080p.BluRay.AC3D.DL.x264-HDC.mkv
Format : Matroska
Format version : Version 2
File size : 16.6 GiB
Duration : 2h 5mn
Overall bit rate : 19.0 Mbps
Encoded date : UTC 2012-05-03 17:31:57
Writing application : mkvmerge v5.3.0 ('I could have danced') built on Feb 9 2012 10:38:07
Writing library : libebml v1.2.3 + libmatroska v1.3.0

Video
ID : 1
Format : AVC
Format/Info : Advanced Video Codec
Format profile : [email protected]
Format settings, CABAC : Yes
Format settings, ReFrames : 4 frames
Codec ID : V_MPEG4/ISO/AVC
Duration : 2h 5mn
Bit rate : 16.7 Mbps
Width : 1 920 pixels
Height : 1 080 pixels
Display aspect ratio : 16:9
Frame rate mode : Constant
Frame rate : 25.000 fps
Original frame rate : 23.976 fps
Color space : YUV
Chroma subsampling : 4:2:0
Bit depth : 8 bits
Scan type : Progressive
Bits/(Pixel*Frame) : 0.323
Stream size : 14.9 GiB (90%)
Title : 16 Mbps AVC MPEG-4
Writing library : x264 core 122 r2184 5c85e0a
Encoding settings : cabac=1 / ref=4 / deblock=1:-3:-3 / analyse=0x3:0x113 / me=umh / subme=9 / psy=1 / psy_rd=1.00:0.00 / mixed_ref=1 / me_range=32 / chroma_me=1 / trellis=2 / 8x8dct=1 / cqm=0 / deadzone=21,11 / fast_pskip=1 / chroma_qp_offset=-2 / threads=6 / sliced_threads=0 / nr=0 / decimate=1 / interlaced=0 / bluray_compat=0 / constrained_intra=0 / bframes=5 / b_pyramid=2 / b_adapt=2 / b_bias=0 / direct=3 / weightb=1 / open_gop=0 / weightp=2 / keyint=250 / keyint_min=23 / scenecut=40 / intra_refresh=0 / rc_lookahead=120 / rc=2pass / mbtree=1 / bitrate=16739 / ratetol=1.0 / qcomp=0.80 / qpmin=0 / qpmax=69 / qpstep=4 / cplxblur=20.0 / qblur=0.5 / ip_ratio=1.40 / aq=1:1.00
Language : English
Default : Yes
Forced : No

Audio #1
ID : 2
Format : AC-3
Format/Info : Audio Coding 3
Mode extension : CM (complete main)
Format settings, Endianness : Big
Codec ID : A_AC3
Duration : 2h 5mn
Bit rate mode : Constant
Bit rate : 448 Kbps
Channel(s) : 6 channels
Channel positions : Front: L C R, Side: L R, LFE
Sampling rate : 48.0 KHz
Bit depth : 16 bits
Compression mode : Lossy
Stream size : 401 MiB (2%)
Title : 5.1 AC3 @ 448 kbps [DVD DUBBED]
Language : German
Default : Yes
Forced : Yes

Audio #2
ID : 3
Format : AC-3
Format/Info : Audio Coding 3
Mode extension : CM (complete main)
Format settings, Endianness : Big
Codec ID : A_AC3
Duration : 2h 5mn
Bit rate mode : Constant
Bit rate : 448 Kbps
Channel(s) : 6 channels
Channel positions : Front: L C R, Side: L R, LFE
Sampling rate : 48.0 KHz
Bit depth : 16 bits
Compression mode : Lossy
Stream size : 401 MiB (2%)
Title : 5.1 AC3 @ 448 kbps [DVD DUBBED]
Language : English
Default : No
Forced : No

Audio #3
ID : 4
Format : AC-3
Format/Info : Audio Coding 3
Mode extension : CM (complete main)
Format settings, Endianness : Big
Codec ID : A_AC3
Duration : 2h 5mn
Bit rate mode : Constant
Bit rate : 640 Kbps
Channel(s) : 6 channels
Channel positions : Front: L C R, Side: L R, LFE
Sampling rate : 48.0 KHz
Bit depth : 16 bits
Compression mode : Lossy
Stream size : 573 MiB (3%)
Title : 5.1 AC3 @ 640 kbps [Origina BluRay Track]
Language : English
Default : No
Forced : No

Text #1
ID : 5
Format : UTF-8
Codec ID : S_TEXT/UTF8
Codec ID/Info : UTF-8 Plain Text
Title : DVD SUB
Language : German
Default : No
Forced : No

Text #2
ID : 6
Format : VobSub
Muxing mode : zlib
Codec ID : S_VOBSUB
Codec ID/Info : The same subtitle format used on DVDs
Title : BluRay SUB
Language : English
Default : No
Forced : No

Menu
00:00:00.000 : en:00:00:00.000
00:01:35.040 : en:00:01:35.040
00:07:40.759 : en:00:07:40.759
00:09:35.480 : en:00:09:35.480
00:12:16.839 : en:00:12:16.839
00:17:02.280 : en:00:17:02.280
00:23:19.720 : en:00:23:19.720
00:30:37.239 : en:00:30:37.239
00:33:07.039 : en:00:33:07.039
00:34:08.840 : en:00:34:08.840
00:38:06.439 : en:00:38:06.439
00:45:35.240 : en:00:45:35.240
00:50:45.759 : en:00:50:45.759
00:55:08.600 : en:00:55:08.600
00:57:46.359 : en:00:57:46.359
01:01:02.280 : en:01:01:02.280
01:08:55.359 : en:01:08:55.359
01:16:28.840 : en:01:16:28.840
01:20:40.719 : en:01:20:40.719
01:26:43.719 : en:01:26:43.719
01:32:02.719 : en:01:32:02.719
01:38:28.800 : en:01:38:28.800
01:44:37.839 : en:01:44:37.839
01:50:23.080 : en:01:50:23.080
01:54:54.119 : en:01:54:54.119
02:01:30.240 : en:02:01:30.240



NFO:

HHHHHHHHH HHHHHHHHHDDDDDDDDDDDDD CCCCCCCCCCCCC
H:::::::H H:::::::HD::::::::::::DDD CCC::::::::::::C
H:::::::H H:::::::HD:::::::::::::::DD CC:::::::::::::::C
HH::::::H H::::::HHDDD:::::DDDDD:::::D C:::::CCCCCCCC::::C
H:::::H H:::::H D:::::D D:::::D C:::::C CCCCCC
H:::::H H:::::H D:::::D D:::::DC:::::C
H::::::HHHHH::::::H D:::::D D:::::DC:::::C
H:::::::::::::::::H D:::::D D:::::DC:::::C
H:::::::::::::::::H D:::::D D:::::DC:::::C
H::::::HHHHH::::::H D:::::D D:::::DC:::::C
H:::::H H:::::H D:::::D D:::::DC:::::C
H:::::H H:::::H D:::::D D:::::D C:::::C CCCCCC
HH::::::H H::::::HHDDD:::::DDDDD:::::D C:::::CCCCCCCC::::C
H:::::::H H:::::::HD:::::::::::::::DD CC:::::::::::::::C
H:::::::H H:::::::HD::::::::::::DDD CCC::::::::::::C
HHHHHHHHH HHHHHHHHHDDDDDDDDDDDDD CCCCCCCCCCCCC

--- What else ---
------------------------------------------------------------------


Proudly presents


Primal.Fear.1996.1080p.BluRay.AC3D.DL.x264-HDC


Director.
Gregory Hoblit


Tagline.
Don't believe everything you see...


Genre.
Crime | Drama | Mystery | Thriller


Plot.
An altar boy is accused of murdering a priest,
and the truth is buried several layers deep.


General Information
RELEASE.DATE...........: 03.05.2012
RUNTIME................: 02h:05m:07s
SIZE...................: 16.6 GB
VIDEO.CODEC............: x264 [LVL4.1][DXVA]
FRAMERATE..............: 25 fps
BITRATE................: 16738 kbps [Source = 29384 kbps]
RESOLUTION.............: 1920x1080 [AR 1.78:1]
PRIMARY.AUDIO..........: German 5.1 AC3 @ 448 kbps [DUBBED]
SECONDARY.AUDIO........: English 5.1 AC3 @ 448 kbps [DUBBED]
THIRD.AUDIO............: English 5.1 AC3 @ 640 kbps [BluRay - stretched]
SUBTITLES..............: German [DVD], English [BluRay]
CHAPTERS...............: Yes
SOURCE.................: Primal.Fear.Blu-Ray.1080p.AVC.DTHD-BrHD + German DVD
IMDB.RATING............: 7.6/10 from 61,267 users
IMDB.LINK..............: [Link nur für registrierte und freigeschaltete Benutzer sichtbar]


x264 [info]: profile High, level 4.1

x264 [info]: frame I:1374 Avg QP:18.81 size:240961
x264 [info]: frame P:44731 Avg QP:21.36 size:113334
x264 [info]: frame B:141575 Avg QP:22.10 size: 77538
x264 [info]: consecutive B-frames: 1.3% 1.3% 4.6% 61.9% 14.6% 16.4%
x264 [info]: SSIM Mean Y:0.9608416 (14.072db)

encoded 187680 frames, 5.10 fps, 16738.33 kb/s


Sprache: Dubs: German, English; Subs: German, English
Länge: 2h 5mn
Größe: 16.6 GiB (18x1000MiB Parts)
Gruppe: HDC
Quelle: BluRay


[Link nur für registrierte und freigeschaltete Benutzer sichtbar]

Enthaltene Dateien:

Primal.Fear.1996.1080p.BluRay.AC3D.DL.x264-HDC.mkv
Primal.Fear.1996.1080p.BluRay.AC3D.DL.x264-HDC.nfo

Download:

[Link nur für registrierte und freigeschaltete Benutzer sichtbar] Primal.Fear.1996.1080p.BluRay.AC3D.DL.x264-HDC ([Link nur für registrierte und freigeschaltete Benutzer sichtbar])

1fichier, MEGA, Share-Online, Uploaded

alando22
17.07.14, 10:06
Zwielicht.Primal.Fear.1996.1080p.BluRay.German.AC3 D.DL.x264-HDC

[Link nur für registrierte und freigeschaltete Benutzer sichtbar]

Nach der brutalen Ermordung eines Erzbischofs übernimmt Staranwalt Martin Vail (Richard Gere) die Verteidigung des schüchternen Meßdieners Aaron (Edward Norton), der als mutmaßlicher Mörder verhaftet wurde. Dabei muß Vail nicht nur vor seiner Ex-Freundin und jetzigen Staatsanwaltsvertreterin Janet bestehen, sondern auch vor einem Klienten, der sein wahres Gesicht geschickt verschleiert.

Attraktiv besetzte Mischung aus psychologisch interessierter Moralstudie und Justizthriller, die den Schwerpunkt auf Figuren legt, die im juristischen Tauschhandel um die Einhaltung ihrer Prinzipien ringen. Ein konventionell, aber kompetent erzähltes Genrestück, das mit überraschenden Plottwists aufwartet.



RELEASE.DATE...........: 03.05.2012
RUNTIME................: 02h:05m:07s
SIZE...................: 16.6 GB
VIDEO.CODEC............: x264 [LVL4.1][DXVA]
FRAMERATE..............: 25 fps
BITRATE................: 16738 kbps [Source = 29384 kbps]
RESOLUTION.............: 1920x1080 [AR 1.78:1]
PRIMARY.AUDIO..........: German 5.1 AC3 @ 448 kbps [DUBBED]
SECONDARY.AUDIO........: English 5.1 AC3 @ 448 kbps [DUBBED]
THIRD.AUDIO............: English 5.1 AC3 @ 640 kbps [BluRay - stretched]
SUBTITLES..............: German [DVD], English [BluRay]
CHAPTERS...............: Yes
SOURCE.................: Primal.Fear.Blu-Ray.1080p.AVC.DTHD-BrHD + German DVD
IMDB.RATING............: 7.6/10 from 61,267 users
IMDB.LINK..............: Primal Fear (1996) - IMDb ([Link nur für registrierte und freigeschaltete Benutzer sichtbar])




# Share-Online, Uploaded
[Link nur für registrierte und freigeschaltete Benutzer sichtbar] Zwielicht.Primal.Fear.1996.1080p.BluRay.AC3D.DL.x2 64-HDC - share-online.biz, ul.to ([Link nur für registrierte und freigeschaltete Benutzer sichtbar])