PDA

Archiv verlassen und diese Seite im Standarddesign anzeigen : Perfect Sense 2011 1080p BluRay DTS DL x264 - HDC



Zarroc
17.07.14, 07:41
Perfect.Sense.2011.1080p.BluRay.DTS.DL.x264-HDC

[Link nur für registrierte und freigeschaltete Benutzer sichtbar]


Eine unerklärliche Epidemie führt dazu, dass die Menschen auf der ganzen Welt ihre Sinneswahrnehmungen verlieren. Während sich die Katastrophe anbahnt, finden in Glasgow die Forscherin Susan (Eva Green) und der Chefkoch Michael (Ewan McGregor) zueinander. Obwohl sich die Krankheit weiter ausbreitet und alle Menschen ihren Geruchs- und Geschmackssinn bereits eingebüßt haben, geht das Leben weiter. Gefühlsschwankungen gehen einher mit der Ausbreitung des Virus im Körper, und vor dem Verlust des Hörsinns führt ein Wutausbruch Michaels dazu, dass sich die beiden verlieren. Und es droht noch Schlimmeres: Blindheit. Werden die beiden Liebenden wieder zu einander finden?

MediaInfo:

General
Unique ID : 213161585124725137753854273725400452276 (0xA05D6D8FFF547DD7B12423206D358CB4)
Complete name : Perfect.Sense.2011.1080p.BluRay.DTS.DL.x264-HDC.mkv
Format : Matroska
Format version : Version 2
File size : 12.5 GiB
Duration : 1h 32mn
Overall bit rate : 19.3 Mbps
Encoded date : UTC 2012-06-07 08:40:44
Writing application : mkvmerge v5.6.0 ('Kenya Kane') built on May 27 2012 16:44:04
Writing library : libebml v1.2.3 + libmatroska v1.3.0

Video
ID : 1
Format : AVC
Format/Info : Advanced Video Codec
Format profile : High@L4.1
Format settings, CABAC : Yes
Format settings, ReFrames : 5 frames
Codec ID : V_MPEG4/ISO/AVC
Duration : 1h 32mn
Bit rate : 16.3 Mbps
Width : 1 920 pixels
Height : 820 pixels
Display aspect ratio : 2.35:1
Frame rate mode : Constant
Frame rate : 23.976 fps
Color space : YUV
Chroma subsampling : 4:2:0
Bit depth : 8 bits
Scan type : Progressive
Bits/(Pixel*Frame) : 0.432
Stream size : 10.3 GiB (82%)
Writing library : x264 core 125 r2200 999b753
Encoding settings : cabac=1 / ref=5 / deblock=1:-3:-3 / analyse=0x3:0x113 / me=umh / subme=9 / psy=1 / psy_rd=1.20:0.00 / mixed_ref=1 / me_range=32 / chroma_me=1 / trellis=2 / 8x8dct=1 / cqm=0 / deadzone=21,11 / fast_pskip=0 / chroma_qp_offset=-2 / threads=6 / lookahead_threads=1 / sliced_threads=0 / nr=0 / decimate=0 / interlaced=0 / bluray_compat=0 / constrained_intra=0 / bframes=4 / b_pyramid=2 / b_adapt=2 / b_bias=0 / direct=3 / weightb=1 / open_gop=0 / weightp=2 / keyint=250 / keyint_min=23 / scenecut=40 / intra_refresh=0 / rc_lookahead=80 / rc=2pass / mbtree=1 / bitrate=16300 / ratetol=1.0 / qcomp=0.70 / qpmin=0 / qpmax=69 / qpstep=4 / cplxblur=20.0 / qblur=0.5 / ip_ratio=1.10 / aq=1:0.80
Language : English
Default : Yes
Forced : No

Audio #1
ID : 2
Format : DTS
Format/Info : Digital Theater Systems
Mode : 16
Format settings, Endianness : Big
Codec ID : A_DTS
Duration : 1h 32mn
Bit rate mode : Constant
Bit rate : 1 509 Kbps
Channel(s) : 6 channels
Channel positions : Front: L C R, Side: L R, LFE
Sampling rate : 48.0 KHz
Bit depth : 24 bits
Compression mode : Lossy
Stream size : 998 MiB (8%)
Title : German 5.1 DTS @ 1509 kbps
Language : German
Default : Yes
Forced : No

Audio #2
ID : 3
Format : DTS
Format/Info : Digital Theater Systems
Mode : 16
Format settings, Endianness : Big
Codec ID : A_DTS
Duration : 1h 32mn
Bit rate mode : Constant
Bit rate : 1 509 Kbps
Channel(s) : 6 channels
Channel positions : Front: L C R, Side: L R, LFE
Sampling rate : 48.0 KHz
Bit depth : 24 bits
Compression mode : Lossy
Stream size : 998 MiB (8%)
Title : English 5.1 DTS @ 1509 kbps
Language : English
Default : No
Forced : No

Text #1
ID : 4
Format : VobSub
Muxing mode : zlib
Codec ID : S_VOBSUB
Codec ID/Info : The same subtitle format used on DVDs
Title : ger forced
Language : German
Default : Yes
Forced : No

Text #2
ID : 5
Format : VobSub
Muxing mode : zlib
Codec ID : S_VOBSUB
Codec ID/Info : The same subtitle format used on DVDs
Title : ger
Language : German
Default : No
Forced : No

Text #3
ID : 6
Format : VobSub
Muxing mode : zlib
Codec ID : S_VOBSUB
Codec ID/Info : The same subtitle format used on DVDs
Title : eng
Language : English
Default : No
Forced : No

Menu
00:00:00.000 : :00:00:00.000
00:07:29.407 : :00:07:29.407
00:16:38.456 : :00:16:38.456
00:24:44.483 : :00:24:44.483
00:31:49.908 : :00:31:49.908
00:40:39.479 : :00:40:39.479
00:48:23.192 : :00:48:23.192
00:57:06.048 : :00:57:06.048
01:04:12.974 : :01:04:12.974
01:11:49.305 : :01:11:49.305
01:20:32.870 : :01:20:32.870
01:27:38.003 : :01:27:38.003



NFO:

HHHHHHHHH HHHHHHHHHDDDDDDDDDDDDD CCCCCCCCCCCCC
H:::::::H H:::::::HD::::::::::::DDD CCC::::::::::::C
H:::::::H H:::::::HD:::::::::::::::DD CC:::::::::::::::C
HH::::::H H::::::HHDDD:::::DDDDD:::::D C:::::CCCCCCCC::::C
H:::::H H:::::H D:::::D D:::::D C:::::C CCCCCC
H:::::H H:::::H D:::::D D:::::DC:::::C
H::::::HHHHH::::::H D:::::D D:::::DC:::::C
H:::::::::::::::::H D:::::D D:::::DC:::::C
H:::::::::::::::::H D:::::D D:::::DC:::::C
H::::::HHHHH::::::H D:::::D D:::::DC:::::C
H:::::H H:::::H D:::::D D:::::DC:::::C
H:::::H H:::::H D:::::D D:::::D C:::::C CCCCCC
HH::::::H H::::::HHDDD:::::DDDDD:::::D C:::::CCCCCCCC::::C
H:::::::H H:::::::HD:::::::::::::::DD CC:::::::::::::::C
H:::::::H H:::::::HD::::::::::::DDD CCC::::::::::::C
HHHHHHHHH HHHHHHHHHDDDDDDDDDDDDD CCCCCCCCCCCCC

--- What else ---
------------------------------------------------------------------


Proudly presents


Perfect.Sense.2011.1080p.BluRay.DTS.DL.x264-HDC


Genre.
Drama | Romance | Sci-Fi

Tagline.
Without love there is nothing.


Plot.
A chef and a scientist fall in love as an epidemic begins to rob people of their sensory perceptions.


General Information.
Release.Name.........: Perfect.Sense.2011.1080p.BluRay.DTS.DL.x264-HDC
Release.Date ........: 7.06.2012
RUNTIME..............: 01h:32m:27s
SIZE.................: 12.4 GB
VIDEO CODEC..........: x264 [@LVL4.1][DXVA]
FRAMERATE............: 23.976 fps
BITRATE..............: 16306 kbps [Source 27998 kbps]
RESOLUTION...........: 1920x820
PRIMARY.AUDIO........: German 5.1 DTS @ 1509 kbps
SECONDARY.AUDIO......: English 5.1 DTS @ 1509 kbps
SUBTITLES............: ger forced, ger, eng
CHAPTERS.............: Yes like BluRay
SOURCE.1.............: Perfect Sense 2011 1080p Blu-ray AVC DTS-HD MA 5.1-EbP
SOURCE.2.............: Perfect Sense 2011 1080p GER Blu-ray AVC DTS-HD MA 5.1
IMDB.RATING..........: 7.0/10 11.303 votes
IMDB.LINK............: [Link nur für registrierte und freigeschaltete Benutzer sichtbar]



x264 [info]: frame I:873 Avg QP:18.70 size:189626
x264 [info]: frame P:31275 Avg QP:20.13 size:118858
x264 [info]: frame B:100827 Avg QP:21.61 size: 73607

x264 [info]: SSIM Mean Y:0.9627081

encoded 132975 frames, 2.19 fps, 16305.80 kb/s


Sprache: Dubs: German, English; Subs: German, English
Länge: 1h 32mn
Größe: 12.5 GiB (14x1000MiB Parts)
Gruppe: HDC
Quelle: BluRay


[Link nur für registrierte und freigeschaltete Benutzer sichtbar]

Enthaltene Dateien:

Perfect.Sense.2011.1080p.BluRay.DTS.DL.x264-HDC.mkv
Perfect.Sense.2011.1080p.BluRay.DTS.DL.x264-HDC.nfo

Download:

[Link nur für registrierte und freigeschaltete Benutzer sichtbar] Perfect.Sense.2011.1080p.BluRay.DTS.DL.x264-HDC ([Link nur für registrierte und freigeschaltete Benutzer sichtbar])

1fichier, MEGA, Share-Online, Uploaded