PDA

Archiv verlassen und diese Seite im Standarddesign anzeigen : Paranoia 2013 1080p BluRay DTS DL x264 - HDC



Zarroc
17.07.14, 07:41
Paranoia.2013.1080p.BluRay.DTS.DL.x264-HDC
aka "Paranoia - Riskantes Spiel"

[Link nur für registrierte und freigeschaltete Benutzer sichtbar]


Adam Cassidy (Liam Hemsworth) steht kurz vor seinem beruflichen Aufstieg. Jahrelang hat er ambitioniert auf eine erfolgreiche Karriere im Wyatt-Telekommunikations-Unternehmen hingearbeitet, einer der führenden Firmen in der Mobilfunkindustrie. Aber dann macht er einen einzigen Fehler, der die Firma viel Geld kostet. Von seinem Chef Nicholas Wyatt (Gary Oldman) wird er daraufhin erpresst und unter Druck gesetzt, um nicht für den Verlust haftbar gemacht zu werden: Er soll in die Konkurrenz-Firma Eikon Systems von Jock Goddard (Harrison Ford) wechseln und dort für Wyatt Industrie-Spionage betreiben. Der Coup hat Erfolg und Adam steigt bei Eikon Systems ein. Doch die Geschichte hat auch ihre Schattenseiten für den jungen Mann: Er lebt nun zwar seinen Traum von Reichtum, Geld und schnellen Autos, ist jedoch nur eine Schachfigur im perfiden Spiel von Konzern-Chef Wyatt. Schon bald erkennt er, dass er schnell einen Weg aus den Griffen seines skrupellosen Chefs finden muss, bevor es zu spät ist. Denn Wyatt geht für Milliarden-Gewinne auch über Leichen...

MediaInfo:

General
Unique ID : 253130465760134348581559099294808967181 (0xBE6F2785BCA520EAA475BE237AB6880D)
Complete name : Paranoia.2013.1080p.BluRay.DTS.DL.x264-HDC.mkv
Format : Matroska
Format version : Version 4 / Version 2
File size : 11.8 GiB
Duration : 1h 46mn
Overall bit rate : 15.9 Mbps
Encoded date : UTC 2014-03-13 14:50:32
Writing application : mkvmerge v6.8.0 ('Theme for Great Cities') 64bit built on Mar 2 2014 21:34:26
Writing library : libebml v1.3.0 + libmatroska v1.4.1

Video
ID : 1
Format : AVC
Format/Info : Advanced Video Codec
Format profile : High@L4.1
Format settings, CABAC : Yes
Format settings, ReFrames : 4 frames
Codec ID : V_MPEG4/ISO/AVC
Duration : 1h 46mn
Bit rate : 12.9 Mbps
Width : 1 920 pixels
Height : 800 pixels
Display aspect ratio : 2.40:1
Frame rate mode : Constant
Frame rate : 23.976 fps
Color space : YUV
Chroma subsampling : 4:2:0
Bit depth : 8 bits
Scan type : Progressive
Bits/(Pixel*Frame) : 0.349
Stream size : 9.34 GiB (79%)
Writing library : x264 core 142 r2389 956c8d8
Encoding settings : cabac=1 / ref=4 / deblock=1:-5:-1 / analyse=0x3:0x113 / me=umh / subme=9 / psy=1 / psy_rd=1.20:0.00 / mixed_ref=1 / me_range=16 / chroma_me=1 / trellis=2 / 8x8dct=1 / cqm=0 / deadzone=21,11 / fast_pskip=0 / chroma_qp_offset=-2 / threads=8 / lookahead_threads=1 / sliced_threads=0 / nr=0 / decimate=1 / interlaced=0 / bluray_compat=0 / constrained_intra=0 / bframes=5 / b_pyramid=2 / b_adapt=2 / b_bias=0 / direct=3 / weightb=1 / open_gop=0 / weightp=2 / keyint=250 / keyint_min=23 / scenecut=40 / intra_refresh=0 / rc_lookahead=88 / rc=2pass / mbtree=1 / bitrate=12856 / ratetol=1.0 / qcomp=0.80 / qpmin=0 / qpmax=69 / qpstep=4 / cplxblur=20.0 / qblur=0.5 / ip_ratio=1.40 / aq=1:0.90
Default : Yes
Forced : No

Audio #1
ID : 2
Format : DTS
Format/Info : Digital Theater Systems
Mode : 16
Format settings, Endianness : Big
Codec ID : A_DTS
Duration : 1h 46mn
Bit rate mode : Constant
Bit rate : 1 509 Kbps
Channel count : 6 channels
Channel positions : Front: L C R, Side: L R, LFE
Sampling rate : 48.0 KHz
Bit depth : 24 bits
Compression mode : Lossy
Stream size : 1.12 GiB (9%)
Title : 5.1 DTS @ 1509kbps
Language : German
Default : Yes
Forced : No

Audio #2
ID : 3
Format : DTS
Format/Info : Digital Theater Systems
Mode : 16
Format settings, Endianness : Big
Codec ID : A_DTS
Duration : 1h 46mn
Bit rate mode : Constant
Bit rate : 1 509 Kbps
Channel count : 6 channels
Channel positions : Front: L C R, Side: L R, LFE
Sampling rate : 48.0 KHz
Bit depth : 24 bits
Compression mode : Lossy
Stream size : 1.12 GiB (9%)
Title : 5.1 DTS @ 1509kbps
Language : English
Default : No
Forced : No

Text #1
ID : 4
Format : VobSub
Codec ID : S_VOBSUB
Codec ID/Info : The same subtitle format used on DVDs
Title : VOB
Language : German
Default : No
Forced : No

Text #2
ID : 5
Format : PGS
Codec ID : S_HDMV/PGS
Codec ID/Info : The same subtitle format used on BDs/HD-DVDs
Title : PGS
Language : German
Default : No
Forced : No

Text #3
ID : 6
Format : VobSub
Codec ID : S_VOBSUB
Codec ID/Info : The same subtitle format used on DVDs
Title : Forced VOB
Language : German
Default : Yes
Forced : Yes

Text #4
ID : 7
Format : PGS
Codec ID : S_HDMV/PGS
Codec ID/Info : The same subtitle format used on BDs/HD-DVDs
Title : Forced PGS
Language : German
Default : No
Forced : No

Menu
00:00:00.000 : en:00:00:00.000
00:10:41.307 : en:00:10:41.307
00:20:38.737 : en:00:20:38.737
00:31:41.316 : en:00:31:41.316
00:41:08.424 : en:00:41:08.424
00:51:11.568 : en:00:51:11.568
01:00:37.300 : en:01:00:37.300
01:10:24.429 : en:01:10:24.429
01:21:52.491 : en:01:21:52.491
01:32:07.772 : en:01:32:07.772
01:41:08.562 : en:01:41:08.562



NFO:

HHHHHHHHH HHHHHHHHHDDDDDDDDDDDDD CCCCCCCCCCCCC
H:::::::H H:::::::HD::::::::::::DDD CCC::::::::::::C
H:::::::H H:::::::HD:::::::::::::::DD CC:::::::::::::::C
HH::::::H H::::::HHDDD:::::DDDDD:::::D C:::::CCCCCCCC::::C
H:::::H H:::::H D:::::D D:::::D C:::::C CCCCCC
H:::::H H:::::H D:::::D D:::::DC:::::C
H::::::HHHHH::::::H D:::::D D:::::DC:::::C
H:::::::::::::::::H D:::::D D:::::DC:::::C
H:::::::::::::::::H D:::::D D:::::DC:::::C
H::::::HHHHH::::::H D:::::D D:::::DC:::::C
H:::::H H:::::H D:::::D D:::::DC:::::C
H:::::H H:::::H D:::::D D:::::D C:::::C CCCCCC
HH::::::H H::::::HHDDD:::::DDDDD:::::D C:::::CCCCCCCC::::C
H:::::::H H:::::::HD:::::::::::::::DD CC:::::::::::::::C
H:::::::H H:::::::HD::::::::::::DDD CCC::::::::::::C
HHHHHHHHH HHHHHHHHHDDDDDDDDDDDDD CCCCCCCCCCCCC

--- What else ---
------------------------------------------------------------------


Proudly presents


Paranoia.2013.1080p.BluRay.DTS.DL.x264-HDC


Genre.
Drama | Thriller


Tagline.
In a war between kings even a pawn can change the game


Plot.
An entry-level employee at a powerful corporation finds himself occupying a corner office,
but at a dangerous price: he must spy on his boss's old mentor
to secure for him a multi-billion dollar advantage.


General Information.
Release.Name.........: Paranoia.2013.1080p.BluRay.DTS.DL.x264-HDC
Release.Date.........: 14.03.2014
RUNTIME..............: 01h:46m:15s
SIZE.................: 11.8 GB
VIDEO CODEC..........: x264
FRAMERATE............: 23.976 fps
BITRATE..............: 12856 kbps [Source=27968 kbps]
RESOLUTION...........: 1920x800 [AR 2.40:1]
AUDIO.1..............: German 5.1 DTS @ 1509 kbps
AUDIO.2..............: English 5.1 DTS @ 1509 kbps
SUBTITLES.VOB.&.PGS..: German
CHAPTERS.............: Yes, like BluRay
SOURCE...............: Paranoia 2013 1080p GER Blu-ray AVC DTS-HD MA 5.1-SharpHD
IMDB.RATING..........: 5,6/10 from 14 400 votes
IMDB.LINK............: [Link nur für registrierte und freigeschaltete Benutzer sichtbar]


x264 [info]: frame I:1426 Avg QP:11.38 size:243937
x264 [info]: frame P:31632 Avg QP:14.68 size: 95001
x264 [info]: frame B:119794 Avg QP:16.12 size: 57532
x264 [info]: SSIM Mean Y:0.9891036

encoded 152852 frames, 5.24 fps, 12855.91 kb/s

Sprache: Dubs: German, English; Subs: German
Länge: 1h 46mn
Größe: 11.8 GiB (13x1000MiB Parts)
Gruppe: HDC
Quelle: BluRay


[Link nur für registrierte und freigeschaltete Benutzer sichtbar]

Enthaltene Dateien:

Paranoia.2013.1080p.BluRay.DTS.DL.x264-HDC.mkv
Paranoia.2013.1080p.BluRay.DTS.DL.x264-HDC.nfo

Download:

[Link nur für registrierte und freigeschaltete Benutzer sichtbar] Paranoia.2013.1080p.BluRay.DTS.DL.x264-HDC ([Link nur für registrierte und freigeschaltete Benutzer sichtbar])

1fichier, MEGA, Share-Online, Uploaded