PDA

Archiv verlassen und diese Seite im Standarddesign anzeigen : Mr Deeds 2002 1080p BluRay AC3D DL x264 - HDC



Zarroc
17.07.14, 06:39
Mr.Deeds.2002.1080p.BluRay.AC3D.DL.x264-HDC

[Link nur für registrierte und freigeschaltete Benutzer sichtbar]


Provinzpoet und Pizzeriabesitzer Deeds (Adam Sandler) führt ein glückliches Leben in der Kleinstadt Mandrake Falls. Als er unerwartet Erbe von 40 Milliarden Dollar samt Medienkonzern wird, verschlägt es ihn nach New York. Schon bald umkreisen ihn Menschen, die nichts Gutes mit ihm im Schilde führen: Firmenmanager Chuck will die Firma zerschlagen und verkaufen. Die Reporterin Babe Bennett (Winona Ryder) erschleicht sich sein Vertrauen, um mit ihm eine blamable Riesen-Story aufzuziehen. Doch durch seinen Diener Emilio (John Turturro) begreift er, um was es im Leben wirklich geht, und letztendlich zeigt Deeds Charakterstärke und Tugendhaftigkeit in dieser moralischen Wüste Wirkung.

MediaInfo:

General
Unique ID : 251880487492562276914347635528945933601 (0xBD7E6AD5EF2CE3D7AB8189D4AFA89D21)
Complete name : Mr.Deeds.2002.1080p.BluRay.AC3D.DL.x264-HDC.mkv
Format : Matroska
Format version : Version 2
File size : 9.85 GiB
Duration : 1h 32mn
Overall bit rate : 15.2 Mbps
Encoded date : UTC 2010-12-19 09:45:02
Writing application : mkvmerge v4.4.0 ('Die Wiederkehr') built on Oct 31 2010 21:52:48
Writing library : libebml v1.0.0 + libmatroska v1.0.0

Video
ID : 1
Format : AVC
Format/Info : Advanced Video Codec
Format profile : High@L4.1
Format settings, CABAC : Yes
Format settings, ReFrames : 4 frames
Codec ID : V_MPEG4/ISO/AVC
Duration : 1h 32mn
Bit rate : 12.4 Mbps
Width : 1 920 pixels
Height : 1 040 pixels
Display aspect ratio : 1.85:1
Frame rate mode : Constant
Frame rate : 25.000 fps
Original frame rate : 23.976 fps
Color space : YUV
Chroma subsampling : 4:2:0
Bit depth : 8 bits
Scan type : Progressive
Bits/(Pixel*Frame) : 0.249
Stream size : 8.26 GiB (84%)
Title : 12 Mbps AVC MPEG-4
Writing library : x264 core 108 r1766+332 1be361f
Encoding settings : cabac=1 / ref=4 / deblock=1:-3:-3 / analyse=0x3:0x113 / me=umh / subme=9 / psy=1 / fade_compensate=0.00 / psy_rd=1.00:0.00 / mixed_ref=1 / me_range=24 / chroma_me=1 / trellis=2 / 8x8dct=1 / cqm=0 / deadzone=21,11 / fast_pskip=1 / chroma_qp_offset=-2 / threads=6 / sliced_threads=0 / nr=0 / decimate=1 / interlaced=0 / constrained_intra=0 / fgo=0 / bframes=5 / b_pyramid=2 / b_adapt=2 / b_bias=0 / direct=3 / weightb=1 / open_gop=0 / weightp=2 / keyint=250 / keyint_min=23 / scenecut=40 / intra_refresh=0 / rc_lookahead=80 / rc=2pass / mbtree=1 / bitrate=12441 / ratetol=1.0 / qcomp=0.80 / qpmin=10 / qpmax=51 / qpstep=4 / cplxblur=20.0 / qblur=0.5 / ip_ratio=1.40 / aq=1:0.80
Language : English
Default : Yes
Forced : No

Audio #1
ID : 2
Format : AC-3
Format/Info : Audio Coding 3
Mode extension : CM (complete main)
Format settings, Endianness : Big
Codec ID : A_AC3
Duration : 1h 32mn
Bit rate mode : Constant
Bit rate : 448 Kbps
Channel count : 6 channels
Channel positions : Front: L C R, Side: L R, LFE
Sampling rate : 48.0 KHz
Bit depth : 16 bits
Compression mode : Lossy
Stream size : 297 MiB (3%)
Title : 5.1 AC3 @ 448 kbps [DUBBED]
Language : German
Default : Yes
Forced : Yes

Audio #2
ID : 3
Format : DTS
Format/Info : Digital Theater Systems
Mode : 16
Format settings, Endianness : Big
Codec ID : A_DTS
Duration : 1h 32mn
Bit rate mode : Constant
Bit rate : 1 509 Kbps
Channel count : 6 channels
Channel positions : Front: L C R, Side: L R, LFE
Sampling rate : 48.0 KHz
Bit depth : 24 bits
Compression mode : Lossy
Stream size : 1 000 MiB (10%)
Title : 5.1 DTS @ 1510 kbps
Language : English
Default : No
Forced : No

Audio #3
ID : 4
Format : AC-3
Format/Info : Audio Coding 3
Format profile : Dolby Digital
Mode extension : CM (complete main)
Format settings, Endianness : Big
Codec ID : A_AC3
Duration : 1h 32mn
Bit rate mode : Constant
Bit rate : 192 Kbps
Channel count : 2 channels
Channel positions : Front: L R
Sampling rate : 48.0 KHz
Bit depth : 16 bits
Compression mode : Lossy
Stream size : 127 MiB (1%)
Title : 2.0 AC3 @ 192 kbps - Commentary
Language : English
Default : No
Forced : No

Text #1
ID : 5
Format : UTF-8
Codec ID : S_TEXT/UTF8
Codec ID/Info : UTF-8 Plain Text
Language : German
Default : No
Forced : No

Text #2
ID : 6
Format : VobSub
Muxing mode : zlib
Codec ID : S_VOBSUB
Codec ID/Info : The same subtitle format used on DVDs
Language : English
Default : Yes
Forced : No

Text #3
ID : 7
Format : VobSub
Muxing mode : zlib
Codec ID : S_VOBSUB
Codec ID/Info : The same subtitle format used on DVDs
Language : French
Default : No
Forced : No

Text #4
ID : 8
Format : VobSub
Muxing mode : zlib
Codec ID : S_VOBSUB
Codec ID/Info : The same subtitle format used on DVDs
Language : Spanish
Default : No
Forced : No

Menu
00:00:00.000 : en:00:00:00.000
00:06:58.899 : en:00:06:58.899
00:11:23.900 : en:00:11:23.900
00:21:53.099 : en:00:21:53.099
00:28:04.300 : en:00:28:04.300
00:32:12.949 : en:00:32:12.949
00:38:36.750 : en:00:38:36.750
00:43:29.000 : en:00:43:29.000
00:53:01.699 : en:00:53:01.699
00:56:31.849 : en:00:56:31.849
01:07:32.400 : en:01:07:32.400
01:10:46.199 : en:01:10:46.199
01:20:26.149 : en:01:20:26.149
01:27:04.150 : en:01:27:04.150
01:35:12.849 : en:01:35:12.849
01:40:26.300 : en:01:40:26.300



NFO:

HHHHHHHHH HHHHHHHHHDDDDDDDDDDDDD CCCCCCCCCCCCC
H:::::::H H:::::::HD::::::::::::DDD CCC::::::::::::C
H:::::::H H:::::::HD:::::::::::::::DD CC:::::::::::::::C
HH::::::H H::::::HHDDD:::::DDDDD:::::D C:::::CCCCCCCC::::C
H:::::H H:::::H D:::::D D:::::D C:::::C CCCCCC
H:::::H H:::::H D:::::D D:::::DC:::::C
H::::::HHHHH::::::H D:::::D D:::::DC:::::C
H:::::::::::::::::H D:::::D D:::::DC:::::C
H:::::::::::::::::H D:::::D D:::::DC:::::C
H::::::HHHHH::::::H D:::::D D:::::DC:::::C
H:::::H H:::::H D:::::D D:::::DC:::::C
H:::::H H:::::H D:::::D D:::::D C:::::C CCCCCC
HH::::::H H::::::HHDDD:::::DDDDD:::::D C:::::CCCCCCCC::::C
H:::::::H H:::::::HD:::::::::::::::DD CC:::::::::::::::C
H:::::::H H:::::::HD::::::::::::DDD CCC::::::::::::C
HHHHHHHHH HHHHHHHHHDDDDDDDDDDDDD CCCCCCCCCCCCC

--- What else ---
------------------------------------------------------------------


Proudly presents


Mr.Deeds.2002.1080p.BluRay.AC3D.DL.x264-HDC


Director.
Steven Brill


Genre.
Comedy | Romance


Tagline.
Don't let the fancy clothes fool you.


Plot.
A sweet-natured, small-town guy inherits a controlling stake
in a media conglomerate and begins to do business his way.


General Information
RELEASE.DATE...........: 19.12.2010
RUNTIME................: 01h:32m:39s
SIZE...................: 9.84 GB
VIDEO.CODEC............: x264 [LVL4.1][DXVA]
FRAMERATE..............: 25 fps
BITRATE................: 12440 kbps [Source = 21994 kbps]
RESOLUTION.............: 1920x1040 [AR 1.85:1]
PRIMARY.AUDIO..........: German 5.1 AC3 @ 448 kbps [DUBBED]
SECONDARY.AUDIO........: English 5.1 DTS @ 1510 kbps
SUBTITLES..............: German,English,French,Spanish
CHAPTERS...............: Yes
SOURCE.................: Mr. Deeds 2002 Blu-Ray 1080p AVC DTS-HD MA 5.1-CtrlHD
IMDB.RATING............: 5.6/10 (40,653 votes)
IMDB.LINK..............: [Link nur für registrierte und freigeschaltete Benutzer sichtbar]


x264 [info]: profile High, level 4.1

x264 [info]: frame I:1513 Avg QP:17.82 size:246705
x264 [info]: frame P:29609 Avg QP:20.14 size: 94524
x264 [info]: frame B:107862 Avg QP:21.41 size: 54168
x264 [info]: consecutive B-frames: 0.5% 1.1% 3.1% 36.3% 17.4% 41.7%
x264 [info]: SSIM Mean Y:0.9639357 (14.429db)

encoded 138984 frames, 2.28 fps, 12440.88 kb/s





Sprache: Dubs: German, English; Subs: German, English, French, Spanish
Länge: 1h 32mn
Größe: 9.85 GiB (11x1000MiB Parts)
Gruppe: HDC
Quelle: BluRay


[Link nur für registrierte und freigeschaltete Benutzer sichtbar]

Enthaltene Dateien:

Mr.Deeds.2002.1080p.BluRay.AC3D.DL.x264-HDC.mkv
Mr.Deeds.2002.1080p.BluRay.AC3D.DL.x264-HDC.nfo

Download:

[Link nur für registrierte und freigeschaltete Benutzer sichtbar] Mr.Deeds.2002.1080p.BluRay.AC3D.DL.x264-HDC ([Link nur für registrierte und freigeschaltete Benutzer sichtbar])

1fichier, MEGA, Share-Online, Uploaded