PDA

Archiv verlassen und diese Seite im Standarddesign anzeigen : Moulin Rouge 2001 1080p BluRay DTS DL x264 - HDC



Zarroc
17.07.14, 07:39
Moulin.Rouge.2001.1080p.BluRay.DTS.DL.x264-HDC

[Link nur für registrierte und freigeschaltete Benutzer sichtbar]


Christian (Ewen McGregor) ist ein mittelloser Schriftsteller und gerade erst in Paris angekommen, wo er als Autor im Moulin Rouge - jenen legendären Nachtclub der frivolen Unterwelt - eingestellt wird und sich sogleich in Satine (Nicole Kidman) verliebt, den Star der Show. Doch die Kurtisane soll im Auftrag ihres Impresarios, dem Moulin-Rouge-Besitzer Zidler (Jim Broadbent), den schmierigen Duke of Worchester (Richard Roxburgh) verführen. Er soll Geld für die Theaterinszenierung springen lassen. Der Duke beißt an, aber durch Zufall wird Christian als Autor verpflichtet - und seine Freunde um den kleinwüchsigen Künstler Toulouse-Lautrec (John Leguizamo) sind ebenfalls beteiligt. Als Satine Christians Liebe erwidert, gerät das Projekt, dessen Handlung ein Abbild der realen Ereignisse ist, in Gefahr. Die Eifersucht des Duke ist grenzenlos...

MediaInfo:

General
Unique ID : 221986139571867776097726306270617256859 (0xA700F9B0259B7BCF9D7C89B8372BC39B)
Complete name : Moulin.Rouge.2001.1080p.BluRay.DTS.DL.x264-HDC.mkv
Format : Matroska
Format version : Version 2
File size : 15.8 GiB
Duration : 2h 7mn
Overall bit rate mode : Variable
Overall bit rate : 17.7 Mbps
Encoded date : UTC 2010-10-15 18:21:46
Writing application : mkvmerge v3.4.0 ('Rapunzel') gebaut am May 15 2010 09:38:20
Writing library : libebml v0.8.0 + libmatroska v0.9.0

Video
ID : 1
Format : AVC
Format/Info : Advanced Video Codec
Format profile : High@L4.1
Format settings, CABAC : Yes
Format settings, ReFrames : 5 frames
Codec ID : V_MPEG4/ISO/AVC
Duration : 2h 7mn
Bit rate : 15.3 Mbps
Width : 1 920 pixels
Height : 800 pixels
Display aspect ratio : 2.40:1
Frame rate mode : Constant
Frame rate : 23.976 fps
Color space : YUV
Chroma subsampling : 4:2:0
Bit depth : 8 bits
Scan type : Progressive
Bits/(Pixel*Frame) : 0.415
Stream size : 13.3 GiB (85%)
Writing library : x264 core 107 r1745 4785e8e
Encoding settings : cabac=1 / ref=5 / deblock=1:-3:-2 / analyse=0x3:0x113 / me=umh / subme=9 / psy=1 / psy_rd=1.10:0.00 / mixed_ref=1 / me_range=32 / chroma_me=1 / trellis=2 / 8x8dct=1 / cqm=0 / deadzone=21,11 / fast_pskip=0 / chroma_qp_offset=-2 / threads=6 / sliced_threads=0 / nr=0 / decimate=0 / interlaced=0 / constrained_intra=0 / bframes=3 / b_pyramid=2 / b_adapt=2 / b_bias=0 / direct=3 / weightb=1 / open_gop=0 / weightp=2 / keyint=250 / keyint_min=23 / scenecut=40 / intra_refresh=0 / rc_lookahead=80 / rc=2pass / mbtree=1 / bitrate=15290 / ratetol=1.0 / qcomp=0.75 / qpmin=10 / qpmax=51 / qpstep=4 / cplxblur=20.0 / qblur=0.5 / ip_ratio=1.40 / aq=1:0.90
Language : English
Default : No
Forced : No

Audio #1
ID : 2
Format : DTS
Format/Info : Digital Theater Systems
Mode : 16
Format settings, Endianness : Big
Codec ID : A_DTS
Duration : 2h 7mn
Bit rate mode : Constant
Bit rate : 768 Kbps
Channel(s) : 6 channels
Channel positions : Front: L C R, Side: L R, LFE
Sampling rate : 48.0 KHz
Bit depth : 24 bits
Compression mode : Lossy
Stream size : 702 MiB (4%)
Title : German 5.1 DTS @ 768 kbps
Language : German
Default : Yes
Forced : No

Audio #2
ID : 3
Format : DTS
Format/Info : Digital Theater Systems
Mode : 16
Format settings, Endianness : Big
Codec ID : A_DTS
Duration : 2h 7mn
Bit rate mode : Constant
Bit rate : 1 509 Kbps
Channel(s) : 6 channels
Channel positions : Front: L C R, Side: L R, LFE
Sampling rate : 48.0 KHz
Bit depth : 24 bits
Compression mode : Lossy
Stream size : 1.35 GiB (9%)
Title : English 5.1 DTS @ 1509 kbps
Language : English
Default : No
Forced : No

Audio #3
ID : 4
Format : Vorbis
Format settings, Floor : 1
Codec ID : A_VORBIS
Duration : 2h 7mn
Bit rate mode : Variable
Bit rate : 80.0 Kbps
Channel(s) : 2 channels
Sampling rate : 48.0 KHz
Compression mode : Lossy
Stream size : 73.1 MiB (0%)
Title : English Commentary 2.0 OGG @ 80 kbps
Writing library : aoTuV b5c (UTC 2008-12-15)
Language : English
Default : No
Forced : No

Text #1
ID : 5
Format : VobSub
Muxing mode : zlib
Codec ID : S_VOBSUB
Codec ID/Info : The same subtitle format used on DVDs
Title : german forced
Language : German
Default : Yes
Forced : No

Text #2
ID : 6
Format : VobSub
Muxing mode : zlib
Codec ID : S_VOBSUB
Codec ID/Info : The same subtitle format used on DVDs
Title : german
Language : German
Default : No
Forced : No

Text #3
ID : 7
Format : VobSub
Muxing mode : zlib
Codec ID : S_VOBSUB
Codec ID/Info : The same subtitle format used on DVDs
Title : german Commentary
Language : German
Default : No
Forced : No

Text #4
ID : 8
Format : VobSub
Muxing mode : zlib
Codec ID : S_VOBSUB
Codec ID/Info : The same subtitle format used on DVDs
Title : English
Language : English
Default : No
Forced : No

Menu
00:00:00.000 : :00:00:00.000
00:01:19.079 : :00:01:19.079
00:05:32.666 : :00:05:32.666
00:10:47.355 : :00:10:47.355
00:13:05.785 : :00:13:05.785
00:14:12.143 : :00:14:12.143
00:21:02.511 : :00:21:02.511
00:25:07.756 : :00:25:07.756
00:27:36.029 : :00:27:36.029
00:31:24.633 : :00:31:24.633
00:35:46.478 : :00:35:46.478
00:40:06.571 : :00:40:06.571
00:44:31.919 : :00:44:31.919
00:48:46.382 : :00:48:46.382
00:53:28.789 : :00:53:28.789
00:55:08.013 : :00:55:08.013
00:57:44.044 : :00:57:44.044
00:59:36.281 : :00:59:36.281
01:01:25.765 : :01:01:25.765
01:05:43.606 : :01:05:43.606
01:08:01.577 : :01:08:01.577
01:12:44.277 : :01:12:44.277
01:18:08.726 : :01:18:08.726
01:25:32.586 : :01:25:32.586
01:27:09.182 : :01:27:09.182
01:29:50.010 : :01:29:50.010
01:32:02.475 : :01:32:02.475
01:34:57.150 : :01:34:57.150
01:36:20.775 : :01:36:20.775
01:38:50.341 : :01:38:50.341
01:42:24.597 : :01:42:24.597
01:47:45.459 : :01:47:45.459
01:51:32.895 : :01:51:32.895
01:53:21.294 : :01:53:21.294
01:58:41.156 : :01:58:41.156
02:00:24.050 : :02:00:24.050



NFO:

HHHHHHHHH HHHHHHHHHDDDDDDDDDDDDD CCCCCCCCCCCCC
H:::::::H H:::::::HD::::::::::::DDD CCC::::::::::::C
H:::::::H H:::::::HD:::::::::::::::DD CC:::::::::::::::C
HH::::::H H::::::HHDDD:::::DDDDD:::::D C:::::CCCCCCCC::::C
H:::::H H:::::H D:::::D D:::::D C:::::C CCCCCC
H:::::H H:::::H D:::::D D:::::DC:::::C
H::::::HHHHH::::::H D:::::D D:::::DC:::::C
H:::::::::::::::::H D:::::D D:::::DC:::::C
H:::::::::::::::::H D:::::D D:::::DC:::::C
H::::::HHHHH::::::H D:::::D D:::::DC:::::C
H:::::H H:::::H D:::::D D:::::DC:::::C
H:::::H H:::::H D:::::D D:::::D C:::::C CCCCCC
HH::::::H H::::::HHDDD:::::DDDDD:::::D C:::::CCCCCCCC::::C
H:::::::H H:::::::HD:::::::::::::::DD CC:::::::::::::::C
H:::::::H H:::::::HD::::::::::::DDD CCC::::::::::::C
HHHHHHHHH HHHHHHHHHDDDDDDDDDDDDD CCCCCCCCCCCCC

--- What else ---
------------------------------------------------------------------


Proudly presents


Moulin.Rouge.2001.1080p.BluRay.DTS.DL.x264-HDC


Genre.
Drama | Musical | Romance


Tagline.
Come And Get Me Boys!


Plot.
The year is 1899, and Christian, a young English writer, has come to Paris to follow the Bohemian
revolution taking hold of the city's drug and prostitute infested underworld. And nowhere is the thrill
of the underworld more alive than at the Moulin Rouge, a night club where the rich and poor men alike
come to be entertained by the dancers, but things take a wicked turn for Christian as he starts a deadly
love affair with the star courtesan of the club, Satine. But her affections are also coveted by the
club's patron: the Duke. A dangerous love triangle ensues as Satine and Christian attempt to fight all odds to stay together
but a force that not even love can conquer is taking its toll on Satine... Written by O.G.


General Information
Release.Name.........: Moulin.Rouge.2001.1080p.BluRay.DTS.DL.x264-HDC
Release.Date ........: 15.10.2010
RUNTIME..............: 02h:07m:47s
SIZE.................: 15.7 GB
VIDEO CODEC..........: x264 @LVL4.1]DXVA]
FRAMERATE............: 23.976 fps
BITRATE..............: 15290 kbps
RESOLUTION...........: 1920x800
PRIMARY.AUDIO........: German 5.1 DTS @ 768 kbps
SECONDARY.AUDIO......: English 5.1 DTS @ 1509 kbps
SUBTITLES............: ger forced, ger, ger com, eng
CHAPTERS.............: Yes like BluRay
SOURCE...............: Moulin.Rouge.2001.BluRay.1080p.AVC.DTS-HD.MA5.1-CHDBits
Encoder..............: nase
IMDB.RATING..........: 7.7/10 106.590 votes
IMDB.LINK............: [Link nur für registrierte und freigeschaltete Benutzer sichtbar]




x264 info]: frame I:2720 Avg QP:17.77 size:224376
x264 info]: frame P:53891 Avg QP:20.21 size:104184
x264 info]: frame B:127235 Avg QP:20.91 size: 66261

x264 info]: SSIM Mean Y:0.9620277

encoded 183846 frames, 1.53 fps, 15290.33 kb/s



Sprache: Dubs: German, English; Subs: German, English
Länge: 2h 7mn
Größe: 15.8 GiB (17x1000MiB Parts)
Gruppe: HDC
Quelle: BluRay


[Link nur für registrierte und freigeschaltete Benutzer sichtbar]

Enthaltene Dateien:

Moulin.Rouge.2001.1080p.BluRay.DTS.DL.x264-HDC.mkv
Moulin.Rouge.2001.1080p.BluRay.DTS.DL.x264-HDC.nfo

Download:

[Link nur für registrierte und freigeschaltete Benutzer sichtbar] Moulin.Rouge.2001.1080p.BluRay.DTS.DL.x264-HDC ([Link nur für registrierte und freigeschaltete Benutzer sichtbar])

1fichier, MEGA, Share-Online, Uploaded

BoeseBZ
12.09.14, 14:14
Thread gereinigt
Dies ist ein Angebotsthread!
Hier ist weder Support noch sind Diskussionen erlaubt.


Danksagungen sind mit dem BEDANKEN-Button zu verrichten.
Bei Fragen und/oder Problemen mit dem Upload, bitte den Uploader direkt via PN kontaktieren.


In diesem Sinne wünschen wir dir weiterhin viel Spaß bei uns.
Dein MyBoerse.bz- Team