PDA

Archiv verlassen und diese Seite im Standarddesign anzeigen : Lost in Translation 2003 1080p BluRay AC3D DTS DL x264 - HDC



Zarroc
17.07.14, 06:30
Lost.in.Translation.2003.1080p.BluRay.AC3D.DTS.DL. x264-HDC

[Link nur für registrierte und freigeschaltete Benutzer sichtbar]


Der Fotograf John (Giovanni Ribisi) ist zusammen mit seiner Frau Charlotte (Scarlett Johansson) auf Geschäftsreise in Tokio und hat dabei wenig Zeit, sich um seine junge Frau zu kümmern. Die japanische Kultur ist ihr fremd, sie fühlt sich allein. Dem amerikanischen Schauspiel-Star Bob Harris (Bill Murray) geht es ähnlich. Mit Jet Lag in den Knochen steht er für finanziell lukrative Aufnahmen zu einem lächerlichen Werbespot für eine japanische Whiskey-Marke vor der Kamera. Er ist über 20 Jahre verheiratet, aber das Feuer ist in seiner Beziehung schon längst erloschen. An der Bar des noblen Park Hyatt Hotels kreuzen sich die Wege von Charlotte und Bob. Sie kommen ins Gespräch und finden sofort einen Draht zueinander. Gemeinsam machen sie sich auf, die bizarre Welt Tokios zu erkunden.

MediaInfo:

General
Unique ID : 235751873962050730678569873018188250204 (0xB15C28CB38554C83807053AB4948BC5C)
Complete name : Lost.in.Translation.2003.1080p.BluRay.AC3D.DTS.DL. x264-HDC.mkv
Format : Matroska
Format version : Version 2
File size : 13.5 GiB
Duration : 1h 41mn
Overall bit rate : 19.0 Mbps
Encoded date : UTC 2010-12-16 17:59:46
Writing application : mkvmerge v3.4.0 ('Rapunzel') gebaut am May 15 2010 09:38:20
Writing library : libebml v0.8.0 + libmatroska v0.9.0

Video
ID : 1
Format : AVC
Format/Info : Advanced Video Codec
Format profile : High@L4.1
Format settings, CABAC : Yes
Format settings, ReFrames : 4 frames
Codec ID : V_MPEG4/ISO/AVC
Duration : 1h 41mn
Bit rate : 17.0 Mbps
Width : 1 920 pixels
Height : 1 040 pixels
Display aspect ratio : 1.85:1
Frame rate mode : Constant
Frame rate : 23.976 fps
Color space : YUV
Chroma subsampling : 4:2:0
Bit depth : 8 bits
Scan type : Progressive
Bits/(Pixel*Frame) : 0.355
Stream size : 11.8 GiB (88%)
Writing library : x264 core 110 r1804 e89c4cf
Encoding settings : cabac=1 / ref=4 / deblock=1:-3:-3 / analyse=0x3:0x113 / me=umh / subme=9 / psy=1 / psy_rd=1.00:0.00 / mixed_ref=1 / me_range=32 / chroma_me=1 / trellis=2 / 8x8dct=1 / cqm=0 / deadzone=21,11 / fast_pskip=0 / chroma_qp_offset=-2 / threads=6 / sliced_threads=0 / nr=0 / decimate=0 / interlaced=0 / constrained_intra=0 / bframes=4 / b_pyramid=2 / b_adapt=2 / b_bias=0 / direct=3 / weightb=1 / open_gop=0 / weightp=2 / keyint=250 / keyint_min=23 / scenecut=40 / intra_refresh=0 / rc_lookahead=80 / rc=2pass / mbtree=1 / bitrate=16985 / ratetol=1.0 / qcomp=0.70 / qpmin=0 / qpmax=51 / qpstep=4 / cplxblur=20.0 / qblur=0.5 / ip_ratio=1.10 / aq=1:0.90
Language : English
Default : No
Forced : No

Audio #1
ID : 2
Format : AC-3
Format/Info : Audio Coding 3
Mode extension : CM (complete main)
Format settings, Endianness : Big
Codec ID : A_AC3
Duration : 1h 41mn
Bit rate mode : Constant
Bit rate : 448 Kbps
Channel(s) : 6 channels
Channel positions : Front: L C R, Side: L R, LFE
Sampling rate : 48.0 KHz
Bit depth : 16 bits
Compression mode : Lossy
Stream size : 326 MiB (2%)
Title : German 5.1 AC3 @448 kbps
Language : German
Default : Yes
Forced : No

Audio #2
ID : 3
Format : DTS
Format/Info : Digital Theater Systems
Mode : 16
Format settings, Endianness : Big
Codec ID : A_DTS
Duration : 1h 41mn
Bit rate mode : Constant
Bit rate : 1 509 Kbps
Channel(s) : 6 channels
Channel positions : Front: L C R, Side: L R, LFE
Sampling rate : 48.0 KHz
Bit depth : 24 bits
Compression mode : Lossy
Stream size : 1.07 GiB (8%)
Title : English 5.1 DTS @ 1509 kbps
Language : English
Default : No
Forced : No

Text #1
ID : 4
Format : UTF-8
Codec ID : S_TEXT/UTF8
Codec ID/Info : UTF-8 Plain Text
Title : German
Language : German
Default : Yes
Forced : No

Text #2
ID : 5
Format : VobSub
Muxing mode : zlib
Codec ID : S_VOBSUB
Codec ID/Info : The same subtitle format used on DVDs
Title : English
Language : English
Default : No
Forced : No

Text #3
ID : 6
Format : VobSub
Muxing mode : zlib
Codec ID : S_VOBSUB
Codec ID/Info : The same subtitle format used on DVDs
Title : Castilian
Language : Spanish
Default : No
Forced : No

Text #4
ID : 7
Format : VobSub
Muxing mode : zlib
Codec ID : S_VOBSUB
Codec ID/Info : The same subtitle format used on DVDs
Title : French
Language : French
Default : No
Forced : No

Menu
00:00:00.000 : :00:00:00.000
00:01:09.569 : :00:01:09.569
00:06:07.158 : :00:06:07.158
00:08:30.427 : :00:08:30.427
00:11:59.302 : :00:11:59.302
00:16:05.214 : :00:16:05.214
00:20:01.784 : :00:20:01.784
00:26:15.741 : :00:26:15.741
00:30:44.843 : :00:30:44.843
00:36:39.656 : :00:36:39.656
00:41:28.069 : :00:41:28.069
00:48:24.026 : :00:48:24.026
00:55:20.400 : :00:55:20.400
00:58:35.637 : :00:58:35.637
00:59:52.255 : :00:59:52.255
01:05:54.576 : :01:05:54.576
01:13:24.400 : :01:13:24.400
01:17:34.108 : :01:17:34.108
01:22:09.133 : :01:22:09.133
01:24:21.848 : :01:24:21.848
01:25:54.900 : :01:25:54.900
01:29:08.385 : :01:29:08.385
01:32:01.266 : :01:32:01.266
01:35:57.418 : :01:35:57.418



NFO:

HHHHHHHHH HHHHHHHHHDDDDDDDDDDDDD CCCCCCCCCCCCC
H:::::::H H:::::::HD::::::::::::DDD CCC::::::::::::C
H:::::::H H:::::::HD:::::::::::::::DD CC:::::::::::::::C
HH::::::H H::::::HHDDD:::::DDDDD:::::D C:::::CCCCCCCC::::C
H:::::H H:::::H D:::::D D:::::D C:::::C CCCCCC
H:::::H H:::::H D:::::D D:::::DC:::::C
H::::::HHHHH::::::H D:::::D D:::::DC:::::C
H:::::::::::::::::H D:::::D D:::::DC:::::C
H:::::::::::::::::H D:::::D D:::::DC:::::C
H::::::HHHHH::::::H D:::::D D:::::DC:::::C
H:::::H H:::::H D:::::D D:::::DC:::::C
H:::::H H:::::H D:::::D D:::::D C:::::C CCCCCC
HH::::::H H::::::HHDDD:::::DDDDD:::::D C:::::CCCCCCCC::::C
H:::::::H H:::::::HD:::::::::::::::DD CC:::::::::::::::C
H:::::::H H:::::::HD::::::::::::DDD CCC::::::::::::C
HHHHHHHHH HHHHHHHHHDDDDDDDDDDDDD CCCCCCCCCCCCC

--- What else ---
------------------------------------------------------------------


Proudly presents


Lost.in.Translation.2003.1080p.BluRay.AC3D.DTS.DL. x264-HDC


Genre.
Drama | Romance


Tagline.
Everyone wants to be found.


Plot.
Bob Harris is an American film actor, far past his prime. He visits Tokyo to appear in commercials,
and he meets Charlotte, the young wife of a visiting photographer. Bored and weary, Bob and Charlotte
make ideal if improbable traveling companions. Charlotte is looking for "her place in life," and Bob
is tolerating a mediocre stateside marriage. Both separately and together, they live the experience of
the American in Tokyo. Bob and Charlotte suffer both confusion and hilarity due to the cultural and
language differences between themselves and the Japanese. As the relationship between Bob and Charlotte
deepens, they come to the realization that their visits to Japan, and one another, must soon end. Or must they?


General Information
Release.Name.........: Lost.in.Translation.2003.1080p.BluRay.AC3D.DTS.DL. x264-HDC
Release.Date ........: 16.12.2010
RUNTIME..............: 01h:41m:46s
SIZE.................: 13.4 GB
VIDEO CODEC..........: x264 [@LVL4.1][DXVA]
FRAMERATE............: 23.976 fps
BITRATE..............: 17000 kbps
RESOLUTION...........: 1920x1040
PRIMARY.AUDIO........: German 5.1 AC3 @ 448 kbps
SECONDARY.AUDIO......: English 5.1 DTS @ 1509 kbps
SUBTITLES............: ger, eng, spa, fra
CHAPTERS.............: Yes like BluRay
SOURCE...............: Lost in Translation 2003 Blu-ray 1080p VC-1 DTS-HD MA 5.1 + Retail DVD
Encoder..............: nase
IMDB.RATING..........: 7.9/10 134.099 votes
IMDB.LINK............: [Link nur für registrierte und freigeschaltete Benutzer sichtbar]


x264 [info]: SSIM Mean Y:0.9878xxx


Sprache: Dubs: German, English; Subs: German, English, Spanish, French
Länge: 1h 41mn
Größe: 13.5 GiB (15x1000MiB Parts)
Gruppe: HDC
Quelle: BluRay


[Link nur für registrierte und freigeschaltete Benutzer sichtbar]

Enthaltene Dateien:

Lost.in.Translation.2003.1080p.BluRay.AC3D.DTS.DL. x264-HDC.mkv
Lost.in.Translation.2003.1080p.BluRay.AC3D.DTS.DL. x264-HDC.nfo

Download:

[Link nur für registrierte und freigeschaltete Benutzer sichtbar] Lost.in.Translation.2003.1080p.BluRay.AC3D.DTS.DL. x264-HDC ([Link nur für registrierte und freigeschaltete Benutzer sichtbar])

1fichier, MEGA, Share-Online, Uploaded