PDA

Archiv verlassen und diese Seite im Standarddesign anzeigen : Killing Season 2013 1080p BluRay DTS DL x264 - HDC



Zarroc
17.07.14, 07:22
Killing.Season.2013.1080p.BluRay.DTS.DL.x264-HDC

[Link nur für registrierte und freigeschaltete Benutzer sichtbar]


Nick (Jason Bateman), Dale (Charlie Day) und Kurt (Jason Sudeikis) haben es nicht einfach in ihren Jobs. So wird der brave Büroangestellte Nick aufs schlimmste von seinem sadistischen Boss David (Kevin Spacey) unterdrückt. Zahnarztassistent Dale muss tagtäglich die Schikanen seiner sexuell frustierten Chefin Julia (Jennifer Aniston) über sich ergehen lassen und der selbstsichere Chemiefirmenmanager Kurt muss die Drogensucht seines Vorgesetzten Bobby (Colin Farrell) ertragen. Schließlich sieht das Dreier-Gespann nur noch einen einzigen Ausweg aus ihrem frustrierten Arbeitsleben: Mord! Der vermeintliche Auftragskiller Motherfucker Jones (Jamie Foxx) scheint dafür genau der richtige Ansprechpartner zu sein. Doch weit gefehlt - Jones rät den Freunden, die Sache, ganz im Stile von "Schmeiß die Mama aus dem Zug", selbst in die Hand zu nehmen. Also machen sich die amateurhaften Mörder in spe an die Arbeit...

MediaInfo:

General
Unique ID : 172434229649337165839508958798550820423 (0x81B99FE7E05029CFA588DE1F17CA6647)
Complete name : Killing.Season.2013.1080p.BluRay.DTS.DL.x264-HDC.mkv
Format : Matroska
Format version : Version 4 / Version 2
File size : 9.13 GiB
Duration : 1h 30mn
Overall bit rate : 14.4 Mbps
Encoded date : UTC 2013-12-29 07:43:53
Writing application : mkvmerge v6.6.0 ('The Edge Of The In Between') built on Dec 1 2013 17:55:00
Writing library : libebml v1.3.0 + libmatroska v1.4.1

Video
ID : 1
Format : AVC
Format/Info : Advanced Video Codec
Format profile : High@L4.1
Format settings, CABAC : Yes
Format settings, ReFrames : 5 frames
Codec ID : V_MPEG4/ISO/AVC
Duration : 1h 30mn
Bit rate : 11.3 Mbps
Width : 1 920 pixels
Height : 800 pixels
Display aspect ratio : 2.40:1
Frame rate mode : Constant
Frame rate : 23.976 fps
Color space : YUV
Chroma subsampling : 4:2:0
Bit depth : 8 bits
Scan type : Progressive
Bits/(Pixel*Frame) : 0.308
Stream size : 7.03 GiB (77%)
Title : 11 Mbps AVC MPEG-4
Writing library : x264 core 135 r2345kMod f0c1c53
Encoding settings : cabac=1 / ref=5 / deblock=1:-5:0 / analyse=0x3:0x113 / me=umh / subme=9 / psy=1 / fade_compensate=0.00 / psy_rd=1.00:0.00 / mixed_ref=1 / me_range=32 / chroma_me=1 / trellis=2 / 8x8dct=1 / cqm=0 / deadzone=21,11 / fast_pskip=1 / chroma_qp_offset=-2 / threads=6 / lookahead_threads=1 / sliced_threads=0 / nr=0 / decimate=1 / interlaced=0 / bluray_compat=0 / constrained_intra=0 / bframes=5 / b_pyramid=2 / b_adapt=2 / b_bias=0 / direct=3 / weightb=1 / open_gop=0 / weightp=2 / keyint=250 / keyint_min=23 / scenecut=40 / intra_refresh=0 / rc_lookahead=120 / rc=2pass / mbtree=1 / bitrate=11345 / ratetol=1.0 / qcomp=0.80 / qpmin=0 / qpmax=69 / qpstep=4 / cplxblur=20.0 / qblur=0.5 / ip_ratio=1.40 / aq=1:1.00
Language : German
Default : Yes
Forced : No

Audio #1
ID : 2
Format : DTS
Format/Info : Digital Theater Systems
Mode : 16
Format settings, Endianness : Big
Codec ID : A_DTS
Duration : 1h 30mn
Bit rate mode : Constant
Bit rate : 1 509 Kbps
Channel(s) : 6 channels
Channel positions : Front: L C R, Side: L R, LFE
Sampling rate : 48.0 KHz
Bit depth : 24 bits
Compression mode : Lossy
Stream size : 981 MiB (10%)
Title : 5.1 DTS @ 1510 kbps
Language : German
Default : Yes
Forced : Yes

Audio #2
ID : 3
Format : DTS
Format/Info : Digital Theater Systems
Mode : 16
Format settings, Endianness : Big
Codec ID : A_DTS
Duration : 1h 30mn
Bit rate mode : Constant
Bit rate : 1 509 Kbps
Channel(s) : 6 channels
Channel positions : Front: L C R, Side: L R, LFE
Sampling rate : 48.0 KHz
Bit depth : 24 bits
Compression mode : Lossy
Stream size : 981 MiB (10%)
Title : 5.1 DTS @ 1510 kbps
Language : English
Default : No
Forced : No

Text #1
ID : 4
Format : PGS
Muxing mode : zlib
Codec ID : S_HDMV/PGS
Codec ID/Info : The same subtitle format used on BDs/HD-DVDs
Title : (PGS) FORCED
Language : German
Default : Yes
Forced : Yes

Text #2
ID : 5
Format : VobSub
Muxing mode : zlib
Codec ID : S_VOBSUB
Codec ID/Info : The same subtitle format used on DVDs
Title : (VOB) FORCED
Language : German
Default : No
Forced : Yes

Text #3
ID : 6
Format : PGS
Muxing mode : zlib
Codec ID : S_HDMV/PGS
Codec ID/Info : The same subtitle format used on BDs/HD-DVDs
Title : PGS
Language : German
Default : No
Forced : No

Text #4
ID : 7
Format : VobSub
Muxing mode : zlib
Codec ID : S_VOBSUB
Codec ID/Info : The same subtitle format used on DVDs
Title : VOB
Language : German
Default : No
Forced : No

Text #5
ID : 8
Format : PGS
Muxing mode : zlib
Codec ID : S_HDMV/PGS
Codec ID/Info : The same subtitle format used on BDs/HD-DVDs
Title : PGS
Language : English
Default : No
Forced : No

Text #6
ID : 9
Format : VobSub
Muxing mode : zlib
Codec ID : S_VOBSUB
Codec ID/Info : The same subtitle format used on DVDs
Title : VOB
Language : English
Default : No
Forced : No

Menu
00:00:00.000 : en:00:00:00.000
00:05:52.227 : en:00:05:52.227
00:13:36.941 : en:00:13:36.941
00:21:07.808 : en:00:21:07.808
00:29:51.456 : en:00:29:51.456
00:35:33.214 : en:00:35:33.214
00:42:18.703 : en:00:42:18.703
00:48:46.006 : en:00:48:46.006
00:57:17.976 : en:00:57:17.976
01:02:09.851 : en:01:02:09.851
01:09:51.854 : en:01:09:51.854
01:20:47.259 : en:01:20:47.259



NFO:

HHHHHHHHH HHHHHHHHHDDDDDDDDDDDDD CCCCCCCCCCCCC
H:::::::H H:::::::HD::::::::::::DDD CCC::::::::::::C
H:::::::H H:::::::HD:::::::::::::::DD CC:::::::::::::::C
HH::::::H H::::::HHDDD:::::DDDDD:::::D C:::::CCCCCCCC::::C
H:::::H H:::::H D:::::D D:::::D C:::::C CCCCCC
H:::::H H:::::H D:::::D D:::::DC:::::C
H::::::HHHHH::::::H D:::::D D:::::DC:::::C
H:::::::::::::::::H D:::::D D:::::DC:::::C
H:::::::::::::::::H D:::::D D:::::DC:::::C
H::::::HHHHH::::::H D:::::D D:::::DC:::::C
H:::::H H:::::H D:::::D D:::::DC:::::C
H:::::H H:::::H D:::::D D:::::D C:::::C CCCCCC
HH::::::H H::::::HHDDD:::::DDDDD:::::D C:::::CCCCCCCC::::C
H:::::::H H:::::::HD:::::::::::::::DD CC:::::::::::::::C
H:::::::H H:::::::HD::::::::::::DDD CCC::::::::::::C
HHHHHHHHH HHHHHHHHHDDDDDDDDDDDDD CCCCCCCCCCCCC

--- What else ---
------------------------------------------------------------------


Proudly presents


Killing.Season.2013.1080p.BluRay.DTS.DL.x264-HDC


Director.
Mark Steven Johnson


Genre.
Action | Drama | Thriller


Tagline.
The purest form of war is one on one.


Plot.
Two veterans of the Bosnian War -- one American, one Serbian -- find their unlikely
friendship turn tense with one of them reveals their true intentions.


General Information
RELEASE.DATE...........: 29.12.2013
RUNTIME................: 01h:30m:51s
SIZE...................: 9.12 GB
VIDEO.CODEC............: x264 [LVL4.1][DXVA]
FRAMERATE..............: 23.976 fps
BITRATE................: 11344 kbps [Source = 29973 kbps]
RESOLUTION.............: 1920x800 [AR 2.40:1]
PRIMARY.AUDIO..........: German 5.1 DTS @ 1510 kbps
SECONDARY.AUDIO........: English 5.1 DTS @ 1510 kbps
FROCED.SUBTITLE........: German, English (PGS & VOB)
SUBTITLES..............: German, English (PGS & VOB)
CHAPTERS...............: Yes
SOURCE.................: Killing Season 2013 1080p GER Blu-ray AVC DTS-HD MA 5.1
IMDB.RATING............: 5,3/10 from 14.486 users
IMDB.LINK..............: [Link nur für registrierte und freigeschaltete Benutzer sichtbar]


x264 [info]: profile High, level 4.1

x264 [info]: frame I:1202 Avg QP:12.73 size:213385
x264 [info]: frame P:29535 Avg QP:15.21 size: 86572
x264 [info]: frame B:99966 Avg QP:15.99 size: 49189
x264 [info]: consecutive B-frames: 2.8% 2.9% 5.7% 21.3% 24.2% 43.0%
x264 [info]: SSIM Mean Y:0.9875917 (19.063db)

encoded 130703 frames, 7.94 fps, 11344.80 kb/s


Sprache: Dubs: German, English; Subs: German, English
Länge: 1h 30mn
Größe: 9.13 GiB (10x1000MiB Parts)
Gruppe: HDC
Quelle: BluRay


[Link nur für registrierte und freigeschaltete Benutzer sichtbar]

Enthaltene Dateien:

Killing.Season.2013.1080p.BluRay.DTS.DL.x264-HDC.mkv
Killing.Season.2013.1080p.BluRay.DTS.DL.x264-HDC.nfo

Download:

[Link nur für registrierte und freigeschaltete Benutzer sichtbar] Killing.Season.2013.1080p.BluRay.DTS.DL.x264-HDC ([Link nur für registrierte und freigeschaltete Benutzer sichtbar])

1fichier, MEGA, Share-Online, Uploaded