PDA

Archiv verlassen und diese Seite im Standarddesign anzeigen : Kindsköpfe Grown Ups 2010 1080p BluRay DTS DL x264 - HDC



Zarroc
17.07.14, 06:09
Grown.Ups.2010.1080p.BluRay.DTS.DL.x264-HDC
aka "Kindsköpfe"

[Link nur für registrierte und freigeschaltete Benutzer sichtbar]


Fünf alte Freunde und ehemalige Sportkameraden (Adam Sandler, Kevin James, Chris Rock, Rob Schneider und David Spade) treffen sich nach vielen Jahren wieder, um ihrem verstorbenen Basketball-Trainer aus Kindheitstagen die letzte Ehre zu erweisen. Zusammen mit ihren Ehefrauen (Salma Hayek, Maria Bello, Maya Rudolph) und Kindern verbringen sie das lange Feiertagswochenende rund um den 4. Juli in dem Haus am See, wo sie vor langer Zeit einmal ihre Meisterschaft gefeiert haben. Die Freunde versuchen, den gleichen Quatsch anzustellen wie früher - und stellen fest, dass Älterwerden nicht automatisch auch Erwachsenwerden bedeutet...

MediaInfo:

General
Unique ID : 182392261368448665376305592755914925480 (0x893778C688E54AF0B9DA71C5B6BDE5A8)
Complete name : Grown.Ups.2010.1080p.BluRay.DTS.DL.x264-HDC.mkv
Format : Matroska
Format version : Version 2
File size : 9.28 GiB
Duration : 1h 42mn
Overall bit rate : 13.0 Mbps
Encoded date : UTC 2010-12-27 19:52:19
Writing application : mkvmerge v4.4.0 ('Die Wiederkehr') built on Oct 31 2010 21:52:48
Writing library : libebml v1.0.0 + libmatroska v1.0.0

Video
ID : 1
Format : AVC
Format/Info : Advanced Video Codec
Format profile : High@L4.1
Format settings, CABAC : Yes
Format settings, ReFrames : 4 frames
Codec ID : V_MPEG4/ISO/AVC
Duration : 1h 42mn
Bit rate : 9 694 Kbps
Width : 1 920 pixels
Height : 1 040 pixels
Display aspect ratio : 1.85:1
Frame rate mode : Constant
Frame rate : 23.976 fps
Color space : YUV
Chroma subsampling : 4:2:0
Bit depth : 8 bits
Scan type : Progressive
Bits/(Pixel*Frame) : 0.202
Stream size : 6.80 GiB (73%)
Title : 9 Mbps AVC MPEG-4
Writing library : x264 core 108 r1766+332 1be361f
Encoding settings : cabac=1 / ref=4 / deblock=1:-3:-3 / analyse=0x3:0x113 / me=umh / subme=9 / psy=1 / fade_compensate=0.00 / psy_rd=1.10:0.00 / mixed_ref=1 / me_range=24 / chroma_me=1 / trellis=2 / 8x8dct=1 / cqm=0 / deadzone=21,11 / fast_pskip=1 / chroma_qp_offset=-2 / threads=6 / sliced_threads=0 / nr=0 / decimate=1 / interlaced=0 / constrained_intra=0 / fgo=0 / bframes=5 / b_pyramid=2 / b_adapt=2 / b_bias=0 / direct=3 / weightb=1 / open_gop=0 / weightp=2 / keyint=250 / keyint_min=23 / scenecut=40 / intra_refresh=0 / rc_lookahead=80 / rc=2pass / mbtree=1 / bitrate=9694 / ratetol=1.0 / qcomp=0.80 / qpmin=10 / qpmax=51 / qpstep=4 / cplxblur=20.0 / qblur=0.5 / ip_ratio=1.40 / aq=1:1.00
Language : German
Default : Yes
Forced : No

Audio #1
ID : 2
Format : DTS
Format/Info : Digital Theater Systems
Mode : 16
Format settings, Endianness : Big
Codec ID : A_DTS
Duration : 1h 42mn
Bit rate mode : Constant
Bit rate : 1 509 Kbps
Channel(s) : 6 channels
Channel positions : Front: L C R, Side: L R, LFE
Sampling rate : 48.0 KHz
Bit depth : 24 bits
Compression mode : Lossy
Stream size : 1.08 GiB (12%)
Title : 5.1 DTS @ 1510 kbps
Language : German
Default : Yes
Forced : Yes

Audio #2
ID : 3
Format : DTS
Format/Info : Digital Theater Systems
Mode : 16
Format settings, Endianness : Big
Codec ID : A_DTS
Duration : 1h 42mn
Bit rate mode : Constant
Bit rate : 1 509 Kbps
Channel(s) : 6 channels
Channel positions : Front: L C R, Side: L R, LFE
Sampling rate : 48.0 KHz
Bit depth : 24 bits
Compression mode : Lossy
Stream size : 1.08 GiB (12%)
Title : 5.1 DTS @ 1510 kbps
Language : English
Default : No
Forced : No

Audio #3
ID : 4
Format : AC-3
Format/Info : Audio Coding 3
Format profile : Dolby Digital
Mode extension : CM (complete main)
Format settings, Endianness : Big
Codec ID : A_AC3
Duration : 1h 42mn
Bit rate mode : Constant
Bit rate : 192 Kbps
Channel(s) : 2 channels
Channel positions : Front: L R
Sampling rate : 48.0 KHz
Bit depth : 16 bits
Compression mode : Lossy
Stream size : 141 MiB (1%)
Title : 2.0 AC3 @ 192 kbps - Commentary
Language : English
Default : No
Forced : No

Text #1
ID : 5
Format : VobSub
Muxing mode : zlib
Codec ID : S_VOBSUB
Codec ID/Info : The same subtitle format used on DVDs
Language : German
Default : No
Forced : No

Text #2
ID : 6
Format : VobSub
Muxing mode : zlib
Codec ID : S_VOBSUB
Codec ID/Info : The same subtitle format used on DVDs
Title : Commentary
Language : German
Default : No
Forced : No

Text #3
ID : 7
Format : VobSub
Muxing mode : zlib
Codec ID : S_VOBSUB
Codec ID/Info : The same subtitle format used on DVDs
Language : English
Default : No
Forced : No

Text #4
ID : 8
Format : VobSub
Muxing mode : zlib
Codec ID : S_VOBSUB
Codec ID/Info : The same subtitle format used on DVDs
Title : Commentary
Language : English
Default : No
Forced : No

Text #5
ID : 9
Format : VobSub
Muxing mode : zlib
Codec ID : S_VOBSUB
Codec ID/Info : The same subtitle format used on DVDs
Language : Dutch
Default : No
Forced : No

Text #6
ID : 10
Format : VobSub
Muxing mode : zlib
Codec ID : S_VOBSUB
Codec ID/Info : The same subtitle format used on DVDs
Title : Commentary
Language : Dutch
Default : No
Forced : No

Text #7
ID : 11
Format : VobSub
Muxing mode : zlib
Codec ID : S_VOBSUB
Codec ID/Info : The same subtitle format used on DVDs
Language : French
Default : No
Forced : No

Text #8
ID : 12
Format : VobSub
Muxing mode : zlib
Codec ID : S_VOBSUB
Codec ID/Info : The same subtitle format used on DVDs
Title : Commentary
Language : French
Default : No
Forced : No

Text #9
ID : 13
Format : VobSub
Muxing mode : zlib
Codec ID : S_VOBSUB
Codec ID/Info : The same subtitle format used on DVDs
Language : Arabic
Default : No
Forced : No

Text #10
ID : 14
Format : VobSub
Muxing mode : zlib
Codec ID : S_VOBSUB
Codec ID/Info : The same subtitle format used on DVDs
Language : Turkish
Default : No
Forced : No

Text #11
ID : 15
Format : VobSub
Muxing mode : zlib
Codec ID : S_VOBSUB
Codec ID/Info : The same subtitle format used on DVDs
Language : Hindi
Default : No
Forced : No

Menu
00:00:00.000 : en:00:00:00.000
00:06:12.831 : en:00:06:12.831
00:15:50.992 : en:00:15:50.992
00:20:51.417 : en:00:20:51.417
00:25:04.503 : en:00:25:04.503
00:28:42.721 : en:00:28:42.721
00:37:09.769 : en:00:37:09.769
00:42:57.200 : en:00:42:57.200
00:50:19.391 : en:00:50:19.391
00:54:30.309 : en:00:54:30.309
01:00:19.115 : en:01:00:19.115
01:06:52.342 : en:01:06:52.342
01:12:04.445 : en:01:12:04.445
01:17:28.978 : en:01:17:28.978
01:24:11.296 : en:01:24:11.296
01:31:01.247 : en:01:31:01.247



NFO:

HHHHHHHHH HHHHHHHHHDDDDDDDDDDDDD CCCCCCCCCCCCC
H:::::::H H:::::::HD::::::::::::DDD CCC::::::::::::C
H:::::::H H:::::::HD:::::::::::::::DD CC:::::::::::::::C
HH::::::H H::::::HHDDD:::::DDDDD:::::D C:::::CCCCCCCC::::C
H:::::H H:::::H D:::::D D:::::D C:::::C CCCCCC
H:::::H H:::::H D:::::D D:::::DC:::::C
H::::::HHHHH::::::H D:::::D D:::::DC:::::C
H:::::::::::::::::H D:::::D D:::::DC:::::C
H:::::::::::::::::H D:::::D D:::::DC:::::C
H::::::HHHHH::::::H D:::::D D:::::DC:::::C
H:::::H H:::::H D:::::D D:::::DC:::::C
H:::::H H:::::H D:::::D D:::::D C:::::C CCCCCC
HH::::::H H::::::HHDDD:::::DDDDD:::::D C:::::CCCCCCCC::::C
H:::::::H H:::::::HD:::::::::::::::DD CC:::::::::::::::C
H:::::::H H:::::::HD::::::::::::DDD CCC::::::::::::C
HHHHHHHHH HHHHHHHHHDDDDDDDDDDDDD CCCCCCCCCCCCC

--- What else ---
------------------------------------------------------------------


Proudly presents


Grown.Ups.2010.1080p.BluRay.DTS.DL.x264-HDC


Director.
Dennis Dugan


Genre.
Comedy


Tagline.
Back Then They Were Too Young To Know Better. Now They Have No Excuse.


Plot.
After their high school basketball coach passes away, five good friends
and former teammates reunite for a Fourth of July holiday weekend.


General Information
RELEASE.DATE...........: 27.12.2010
RUNTIME................: 01h:42m:20s
SIZE...................: 9.28 GB
VIDEO.CODEC............: x264 [LVL4.1][DXVA]
FRAMERATE..............: 23.976 fps
BITRATE................: 9694 kbps [Source = 24855 kbps]
RESOLUTION.............: 1920x1040 [AR 1.85:1]
PRIMARY.AUDIO..........: German 5.1 DTS @ 1510 kbps
SECONDARY.AUDIO........: English 5.1 DTS @ 1510 kbps
COMMENTARY.AUDIO.......: English 2.0 AC3 @ 192 kbps
SUBTITLES..............: German,English,French,Arabic,Turkish,Dutch,Hindi
COMMENTARY.SUBTITLES...: German,English,French,Dutch,
CHAPTERS...............: Yes
SOURCE.................: Grown Ups 2010 EUR Blu-Ray 1080p AVC DTS-HD MA 5.1
IMDB.RATING............: 5.8/10 (23,358 votes)
IMDB.LINK..............: [Link nur für registrierte und freigeschaltete Benutzer sichtbar]


x264 [info]: profile High, level 4.1
x264 [info]: frame I:1885 Avg QP:14.70 size:260406
x264 [info]: frame P:38227 Avg QP:17.07 size: 84713
x264 [info]: frame B:107103 Avg QP:17.98 size: 34645
x264 [info]: consecutive B-frames: 1.1% 4.8% 4.1% 75.3% 5.0% 9.7%
x264 [info]: SSIM Mean Y:0.9873676 (18.985db)

encoded 147215 frames, 3.45 fps, 9693.41 kb/s




Sprache: Dubs: German, English; Subs: German, English, Dutch, French, Arabic, Turkish, Hindi
Länge: 1h 42mn
Größe: 9.28 GiB (10x1000MiB Parts)
Gruppe: HDC
Quelle: BluRay


[Link nur für registrierte und freigeschaltete Benutzer sichtbar]

Enthaltene Dateien:

Grown.Ups.2010.1080p.BluRay.DTS.DL.x264-HDC.mkv
Grown.Ups.2010.1080p.BluRay.DTS.DL.x264-HDC.nfo

Download:

[Link nur für registrierte und freigeschaltete Benutzer sichtbar] Grown.Ups.2010.1080p.BluRay.DTS.DL.x264-HDC ([Link nur für registrierte und freigeschaltete Benutzer sichtbar])

1fichier, MEGA, Share-Online, Uploaded