PDA

Archiv verlassen und diese Seite im Standarddesign anzeigen : Contagion 2011 1080p BluRay AC3 ML x264 - HDC



Zarroc
17.07.14, 05:56
Contagion.2011.1080p.BluRay.AC3.ML.x264-HDC

[Link nur für registrierte und freigeschaltete Benutzer sichtbar]


Nachdem eine Frau (Gwyneth Paltrow) nach einer Auslandsreise an einem mysteriösen Virus stirbt und ähnliche Fälle auf dem ganzen Planeten auftreten, ist schnell klar: eine Epidemie breitet sich aus, die schnell weltweit immer größere Teile der Bevölkerung hinwegrafft. Während die Wissenschaftler des amerikanischen Centers for Disease Control and Prevention Dr. Ellis Cheever (Laurence Fishburne), Dr. Erin Mears (Kate Winslet) und Dr. Ally Hextall (Jennifer Ehle) versuchen mehr über das Virus herauszufinden und ein Heilmittel zu entwickeln, reist Dr. Leonora Orantes (Marion Cotillard) von der Weltgesundheitsbehörde in Genf nach Hongkong, wo man den Ursprung der Krankheit vermutet. Unterdessen muss Mitch Emhoff (Matt Damon) mit dem Tod seiner Ehefrau fertig werden und versucht verzweifelt, seine Tochter (Anna Jacoby-Heron) vor einer Infektion zu schützen. Derweil schafft es der fanatische Blogger Alan Krumwiede (Jude Law) mit seinen Texten weltweit Panik auszulösen.

MediaInfo:

General
Unique ID : 207073378155839649962534459025800235559 (0x9BC8E1C8A0842E8FA21204BB043B0A27)
Complete name : Contagion.2011.1080p.BluRay.AC3.ML.x264-HDC.mkv
Format : Matroska
Format version : Version 2
File size : 8.18 GiB
Duration : 1h 46mn
Overall bit rate : 11.0 Mbps
Encoded date : UTC 2012-02-16 20:41:35
Writing application : mkvmerge v5.2.0 ('I can't explain') built on Dec 18 2011 18:12:03
Writing library : libebml v1.2.3 + libmatroska v1.3.0

Video
ID : 1
Format : AVC
Format/Info : Advanced Video Codec
Format profile : [email protected]
Format settings, CABAC : Yes
Format settings, ReFrames : 4 frames
Codec ID : V_MPEG4/ISO/AVC
Duration : 1h 46mn
Bit rate : 9 054 Kbps
Width : 1 920 pixels
Height : 1 080 pixels
Display aspect ratio : 16:9
Frame rate mode : Constant
Frame rate : 23.976 fps
Color space : YUV
Chroma subsampling : 4:2:0
Bit depth : 8 bits
Scan type : Progressive
Bits/(Pixel*Frame) : 0.182
Stream size : 6.59 GiB (81%)
Writing library : x264 core 120 r2146 bcd41db
Encoding settings : cabac=1 / ref=4 / deblock=1:-3:-3 / analyse=0x3:0x113 / me=umh / subme=9 / psy=1 / psy_rd=1.00:0.00 / mixed_ref=1 / me_range=32 / chroma_me=1 / trellis=2 / 8x8dct=1 / cqm=0 / deadzone=21,11 / fast_pskip=0 / chroma_qp_offset=-2 / threads=6 / sliced_threads=0 / nr=0 / decimate=0 / interlaced=0 / bluray_compat=0 / constrained_intra=0 / bframes=4 / b_pyramid=2 / b_adapt=2 / b_bias=0 / direct=3 / weightb=1 / open_gop=0 / weightp=2 / keyint=250 / keyint_min=23 / scenecut=40 / intra_refresh=0 / rc_lookahead=80 / rc=2pass / mbtree=1 / bitrate=9054 / ratetol=1.0 / qcomp=0.70 / qpmin=0 / qpmax=69 / qpstep=4 / cplxblur=20.0 / qblur=0.5 / ip_ratio=1.10 / aq=1:0.90
Language : English
Default : Yes
Forced : No

Audio #1
ID : 2
Format : AC-3
Format/Info : Audio Coding 3
Mode extension : CM (complete main)
Format settings, Endianness : Big
Codec ID : A_AC3
Duration : 1h 46mn
Bit rate mode : Constant
Bit rate : 640 Kbps
Channel(s) : 6 channels
Channel positions : Front: L C R, Side: L R, LFE
Sampling rate : 48.0 KHz
Bit depth : 16 bits
Compression mode : Lossy
Stream size : 487 MiB (6%)
Title : German 5.1 AC3 @ 640 kbps
Language : German
Default : Yes
Forced : No

Audio #2
ID : 3
Format : AC-3
Format/Info : Audio Coding 3
Mode extension : CM (complete main)
Format settings, Endianness : Big
Codec ID : A_AC3
Duration : 1h 46mn
Bit rate mode : Constant
Bit rate : 640 Kbps
Channel(s) : 6 channels
Channel positions : Front: L C R, Side: L R, LFE
Sampling rate : 48.0 KHz
Bit depth : 16 bits
Compression mode : Lossy
Stream size : 487 MiB (6%)
Title : English 5.1 AC3 @ 640 kbps
Language : English
Default : No
Forced : No

Audio #3
ID : 4
Format : AC-3
Format/Info : Audio Coding 3
Mode extension : CM (complete main)
Format settings, Endianness : Big
Codec ID : A_AC3
Duration : 1h 46mn
Bit rate mode : Constant
Bit rate : 640 Kbps
Channel(s) : 6 channels
Channel positions : Front: L C R, Side: L R, LFE
Sampling rate : 48.0 KHz
Bit depth : 16 bits
Compression mode : Lossy
Stream size : 487 MiB (6%)
Title : Italian 5.1 AC3 @ 640 kbps
Language : Italian
Default : No
Forced : No

Text #1
ID : 5
Format : VobSub
Muxing mode : zlib
Codec ID : S_VOBSUB
Codec ID/Info : The same subtitle format used on DVDs
Title : german forced
Language : German
Default : Yes
Forced : No

Text #2
ID : 6
Format : VobSub
Muxing mode : zlib
Codec ID : S_VOBSUB
Codec ID/Info : The same subtitle format used on DVDs
Title : german
Language : German
Default : No
Forced : No

Text #3
ID : 7
Format : VobSub
Muxing mode : zlib
Codec ID : S_VOBSUB
Codec ID/Info : The same subtitle format used on DVDs
Title : english
Language : English
Default : No
Forced : No

Text #4
ID : 8
Format : VobSub
Muxing mode : zlib
Codec ID : S_VOBSUB
Codec ID/Info : The same subtitle format used on DVDs
Title : italian forced
Language : Italian
Default : No
Forced : No

Text #5
ID : 9
Format : VobSub
Muxing mode : zlib
Codec ID : S_VOBSUB
Codec ID/Info : The same subtitle format used on DVDs
Title : italian
Language : Italian
Default : No
Forced : No

Text #6
ID : 10
Format : VobSub
Muxing mode : zlib
Codec ID : S_VOBSUB
Codec ID/Info : The same subtitle format used on DVDs
Title : turkish forced
Language : Turkish
Default : No
Forced : No

Text #7
ID : 11
Format : VobSub
Muxing mode : zlib
Codec ID : S_VOBSUB
Codec ID/Info : The same subtitle format used on DVDs
Title : turkish
Language : Turkish
Default : No
Forced : No

Text #8
ID : 12
Format : VobSub
Muxing mode : zlib
Codec ID : S_VOBSUB
Codec ID/Info : The same subtitle format used on DVDs
Title : finnish
Language : Finnish
Default : No
Forced : No

Menu
00:00:00.000 : :00:00:00.000
00:04:33.356 : :00:04:33.356
00:07:26.780 : :00:07:26.780
00:11:08.960 : :00:11:08.960
00:14:20.818 : :00:14:20.818
00:16:01.043 : :00:16:01.043
00:17:44.814 : :00:17:44.814
00:20:15.464 : :00:20:15.464
00:22:23.634 : :00:22:23.634
00:24:11.909 : :00:24:11.909
00:26:55.781 : :00:26:55.781
00:30:31.997 : :00:30:31.997
00:34:17.097 : :00:34:17.097
00:36:35.026 : :00:36:35.026
00:38:40.735 : :00:38:40.735
00:41:28.236 : :00:41:28.236
00:42:51.068 : :00:42:51.068
00:46:55.146 : :00:46:55.146
00:49:49.403 : :00:49:49.403
00:52:00.951 : :00:52:00.951
00:53:57.609 : :00:53:57.609
00:57:30.364 : :00:57:30.364
01:00:54.234 : :01:00:54.234
01:03:22.716 : :01:03:22.716
01:07:42.392 : :01:07:42.392
01:10:21.259 : :01:10:21.259
01:12:34.225 : :01:12:34.225
01:15:35.322 : :01:15:35.322
01:18:10.227 : :01:18:10.227
01:22:34.032 : :01:22:34.032
01:25:23.410 : :01:25:23.410
01:31:28.358 : :01:31:28.358
01:34:35.295 : :01:34:35.295
01:36:10.556 : :01:36:10.556
01:41:28.332 : :01:41:28.332



NFO:

HHHHHHHHH HHHHHHHHHDDDDDDDDDDDDD CCCCCCCCCCCCC
H:::::::H H:::::::HD::::::::::::DDD CCC::::::::::::C
H:::::::H H:::::::HD:::::::::::::::DD CC:::::::::::::::C
HH::::::H H::::::HHDDD:::::DDDDD:::::D C:::::CCCCCCCC::::C
H:::::H H:::::H D:::::D D:::::D C:::::C CCCCCC
H:::::H H:::::H D:::::D D:::::DC:::::C
H::::::HHHHH::::::H D:::::D D:::::DC:::::C
H:::::::::::::::::H D:::::D D:::::DC:::::C
H:::::::::::::::::H D:::::D D:::::DC:::::C
H::::::HHHHH::::::H D:::::D D:::::DC:::::C
H:::::H H:::::H D:::::D D:::::DC:::::C
H:::::H H:::::H D:::::D D:::::D C:::::C CCCCCC
HH::::::H H::::::HHDDD:::::DDDDD:::::D C:::::CCCCCCCC::::C
H:::::::H H:::::::HD:::::::::::::::DD CC:::::::::::::::C
H:::::::H H:::::::HD::::::::::::DDD CCC::::::::::::C
HHHHHHHHH HHHHHHHHHDDDDDDDDDDDDD CCCCCCCCCCCCC

--- What else ---
------------------------------------------------------------------


Proudly presents


Contagion.2011.1080p.BluRay.AC3.ML.x264-HDC


Genre.
Drama | Thriller


Tagline.
Nothing spreads like fear


Plot.
A thriller centered on the threat posed by a deadly disease and an
international team of doctors contracted by the CDC to deal with the outbreak.


General Information.
Release.Name.........: Contagion.2011.1080p.BluRay.AC3.ML.x264-HDC
Release.Date ........: 16.02.2012
RUNTIME..............: 01h:46m:26s
SIZE.................: 8.18 GB
VIDEO CODEC..........: x264 [@LVL4.1][DXVA]
FRAMERATE............: 23.976 fps
BITRATE..............: 9054 kbps [Source 16845 kbps]
RESOLUTION...........: 1920x1080
PRIMARY.AUDIO........: German 5.1 AC3 @ 640 kbps
SECONDARY.AUDIO.1....: English 5.1 AC3 @ 640 kbps
SECONDARY.AUDIO.2....: Italian 5.1 AC3 @ 640 kbps
SUBTITLES............: ger forced, ger, eng, ita forced, ita, tur forced, tur, fin
CHAPTERS.............: Yes like BluRay
SOURCE...............: Contagion 2011 RERIP 1080p Blu-ray EUR AVC DTS-HD MA 5.1-EbP
IMDB.RATING..........: 6.8/10 60.054 votes
IMDB.LINK............: [Link nur für registrierte und freigeschaltete Benutzer sichtbar]



x264 [info]: frame I:1161 Avg QP:14.15 size:204077
x264 [info]: frame P:45052 Avg QP:15.48 size: 87268
x264 [info]: frame B:106875 Avg QP:17.17 size: 28610

x264 [info]: SSIM Mean Y:0.9888979

encoded 153088 frames, 3.31 fps, 9053.87 kb/s


Sprache: Dubs: German, English, Italian; Subs: German, English, Italian, Turkish, Finnish
Länge: 1h 46mn
Größe: 8.18 GiB (9x1000MiB Parts)
Gruppe: HDC
Quelle: BluRay


[Link nur für registrierte und freigeschaltete Benutzer sichtbar]

Enthaltene Dateien:

Contagion.2011.1080p.BluRay.AC3.ML.x264-HDC.mkv
Contagion.2011.1080p.BluRay.AC3.ML.x264-HDC.nfo

Download:

[Link nur für registrierte und freigeschaltete Benutzer sichtbar] Contagion.2011.1080p.BluRay.AC3.ML.x264-HDC ([Link nur für registrierte und freigeschaltete Benutzer sichtbar])

1fichier, MEGA, Share-Online, Uploaded