PDA

Archiv verlassen und diese Seite im Standarddesign anzeigen : Cleopatra 1963 1080p BluRay DTS DL x264 - HDC



Zarroc
17.07.14, 06:53
Cleopatra.1963.1080p.BluRay.DTS.DL.x264-HDC

[Link nur für registrierte und freigeschaltete Benutzer sichtbar]


Nachdem Julius Caesar (Rex Harrison) die innerrömische Entscheidungsschlacht zu seinen Gunsten entschieden hat, reist er nach Ägypten, wo sich sein Widersacher Pompeius versteckt hält. Dort lernt der erfolgreiche Feldherr die hübsche Cleopatra (Elizabeth Taylor) kennen, die mit ihrem Bruder, Pharao Ptolemäus (Richard O'Sullivan), das Land am Nil beherrscht. Da die Regentin nicht allzu fest im Sattel sitzt, kann sich Caesar auszeichnen, indem er ihr gegen die Konkurrenten im eigenen Land unter die Arme greift. Mit verführerischem Charme nimmt Cleopatra Caeser für sich ein und setzt seine Stärke zum eigenen Vorteil ein. Aus der Liebe zwischen den beiden Machtmenschen geht der Sohn Caesarion hervor. Die Verbindung mit Cleopatra bringt Caesar jedoch Kritik unter den Römern ein. Der bis dahin unbestrittene Diktator über das Römische Reich sieht sich einer Intrige ausgesetzt, in die auch seine rechte Hand Marcus Antonius (Richard Burton) sowie Octavian (Roddy McDowall) hineingezogen werden. Ein blutiger Kampf um die Macht in Rom entbrennt.

MediaInfo:

General
Unique ID : 238937359910561400318052683514695674480 (0xB3C1A9607B8D6ABE8A524CEEAC2C6A70)
Complete name : Cleopatra.1963.1080p.BluRay.DTS.DL.x264-HDC.mkv
Format : Matroska
Format version : Version 2
File size : 31.8 GiB
Duration : 4h 11mn
Overall bit rate mode : Variable
Overall bit rate : 18.2 Mbps
Encoded date : UTC 2012-01-25 19:49:01
Writing application : mkvmerge v5.2.0 ('I can't explain') built on Dec 18 2011 18:12:03
Writing library : libebml v1.2.3 + libmatroska v1.3.0

Video
ID : 1
Format : AVC
Format/Info : Advanced Video Codec
Format profile : High@L4.1
Format settings, CABAC : Yes
Format settings, ReFrames : 4 frames
Codec ID : V_MPEG4/ISO/AVC
Duration : 4h 11mn
Bit rate : 15.7 Mbps
Width : 1 920 pixels
Height : 866 pixels
Display aspect ratio : 2.2:1
Frame rate mode : Constant
Frame rate : 23.976 fps
Color space : YUV
Chroma subsampling : 4:2:0
Bit depth : 8 bits
Scan type : Progressive
Bits/(Pixel*Frame) : 0.394
Stream size : 28.9 GiB (91%)
Writing library : x264 core 120 r2146 bcd41db
Encoding settings : cabac=1 / ref=4 / deblock=1:-3:-3 / analyse=0x3:0x113 / me=umh / subme=9 / psy=1 / psy_rd=1.00:0.00 / mixed_ref=1 / me_range=32 / chroma_me=1 / trellis=2 / 8x8dct=1 / cqm=0 / deadzone=21,11 / fast_pskip=0 / chroma_qp_offset=-2 / threads=6 / sliced_threads=0 / nr=0 / decimate=0 / interlaced=0 / bluray_compat=0 / constrained_intra=0 / bframes=5 / b_pyramid=2 / b_adapt=2 / b_bias=0 / direct=3 / weightb=1 / open_gop=0 / weightp=2 / keyint=250 / keyint_min=23 / scenecut=40 / intra_refresh=0 / rc_lookahead=80 / rc=2pass / mbtree=1 / bitrate=15726 / ratetol=1.0 / qcomp=0.70 / qpmin=0 / qpmax=69 / qpstep=4 / cplxblur=20.0 / qblur=0.5 / ip_ratio=1.10 / aq=1:0.80
Language : English
Default : Yes
Forced : No

Audio #1
ID : 2
Format : DTS
Format/Info : Digital Theater Systems
Mode : 16
Format settings, Endianness : Big
Codec ID : A_DTS
Duration : 4h 11mn
Bit rate mode : Constant
Bit rate : 768 Kbps
Channel(s) : 6 channels
Channel positions : Front: L C R, Side: L R, LFE
Sampling rate : 48.0 KHz
Bit depth : 24 bits
Compression mode : Lossy
Stream size : 1.35 GiB (4%)
Title : German 5.1 DTS @ 768 kbps
Language : German
Default : Yes
Forced : No

Audio #2
ID : 3
Format : AC-3
Format/Info : Audio Coding 3
Mode extension : CM (complete main)
Format settings, Endianness : Big
Codec ID : A_AC3
Duration : 4h 11mn
Bit rate mode : Constant
Bit rate : 448 Kbps
Channel(s) : 4 channels
Channel positions : Front: L C R, Back: C
Sampling rate : 48.0 KHz
Bit depth : 16 bits
Compression mode : Lossy
Stream size : 805 MiB (2%)
Title : English 3.1 AC3 @ 448 kbps
Default : No
Forced : No

Audio #3
ID : 11
Format : Vorbis
Format settings, Floor : 1
Codec ID : A_VORBIS
Duration : 4h 11mn
Bit rate mode : Variable
Bit rate : 80.0 Kbps
Channel(s) : 2 channels
Sampling rate : 48.0 KHz
Compression mode : Lossy
Stream size : 144 MiB (0%)
Title : English 2.0 OGG @ 80 kbps
Writing library : aoTuV 20110424 (UTC 2011-04-24)
Language : English
Default : No
Forced : No

Text #1
ID : 4
Format : VobSub
Muxing mode : zlib
Codec ID : S_VOBSUB
Codec ID/Info : The same subtitle format used on DVDs
Title : German forced
Language : German
Default : Yes
Forced : No

Text #2
ID : 5
Format : VobSub
Muxing mode : zlib
Codec ID : S_VOBSUB
Codec ID/Info : The same subtitle format used on DVDs
Title : German
Language : German
Default : No
Forced : No

Text #3
ID : 6
Format : VobSub
Muxing mode : zlib
Codec ID : S_VOBSUB
Codec ID/Info : The same subtitle format used on DVDs
Title : German Com
Language : German
Default : No
Forced : No

Text #4
ID : 7
Format : VobSub
Muxing mode : zlib
Codec ID : S_VOBSUB
Codec ID/Info : The same subtitle format used on DVDs
Title : English
Language : English
Default : No
Forced : No

Text #5
ID : 8
Format : VobSub
Muxing mode : zlib
Codec ID : S_VOBSUB
Codec ID/Info : The same subtitle format used on DVDs
Title : Italian forced
Language : Italian
Default : No
Forced : No

Text #6
ID : 9
Format : VobSub
Muxing mode : zlib
Codec ID : S_VOBSUB
Codec ID/Info : The same subtitle format used on DVDs
Title : Italian
Language : Italian
Default : No
Forced : No

Text #7
ID : 10
Format : VobSub
Muxing mode : zlib
Codec ID : S_VOBSUB
Codec ID/Info : The same subtitle format used on DVDs
Title : Italian Com
Language : Italian
Default : No
Forced : No

Menu
00:00:00.000 : :00:00:00.000
00:02:29.149 : :00:02:29.149
00:04:56.171 : :00:04:56.171
00:09:14.429 : :00:09:14.429
00:18:11.507 : :00:18:11.507
00:28:03.515 : :00:28:03.515
00:32:19.771 : :00:32:19.771
00:37:31.499 : :00:37:31.499
00:43:50.461 : :00:43:50.461
00:48:15.517 : :00:48:15.517
00:49:53.824 : :00:49:53.824
00:52:47.789 : :00:52:47.789
00:57:49.299 : :00:57:49.299
01:02:28.244 : :01:02:28.244
01:06:10.675 : :01:06:10.675
01:08:03.496 : :01:08:03.496
01:14:00.644 : :01:14:00.644
01:16:51.523 : :01:16:51.523
01:20:36.456 : :01:20:36.456
01:29:57.600 : :01:29:57.600
01:31:11.466 : :01:31:11.466
01:37:02.316 : :01:37:02.316
01:41:45.516 : :01:41:45.516
01:46:30.217 : :01:46:30.217
01:51:30.350 : :01:51:30.350
01:56:56.843 : :01:56:56.843
01:59:34.624 : :00:00:00.000
02:04:34.715 : :00:05:00.091
02:09:09.824 : :00:09:35.200
02:12:39.825 : :00:13:05.201
02:19:55.844 : :00:20:21.220
02:27:53.905 : :00:28:19.281
02:34:15.995 : :00:34:41.371
02:44:02.289 : :00:44:27.665
02:46:53.460 : :00:47:18.836
02:52:44.853 : :00:53:10.229
02:57:46.779 : :00:58:12.155
03:02:08.791 : :01:02:34.167
03:05:06.468 : :01:05:31.844
03:15:26.463 : :01:15:51.839
03:20:52.789 : :01:21:18.165
03:24:22.540 : :01:24:47.916
03:26:37.133 : :01:27:02.509
03:32:59.139 : :01:33:24.515
03:38:13.120 : :01:38:38.496
03:41:40.785 : :01:42:06.161
03:47:50.113 : :01:48:15.489
03:52:02.949 : :01:52:28.325
03:55:42.918 : :01:56:08.294
03:58:07.646 : :01:58:33.022
04:01:53.622 : :02:02:18.998
04:05:41.016 : :02:06:06.392
04:08:42.155 : :02:09:07.531



NFO:

HHHHHHHHH HHHHHHHHHDDDDDDDDDDDDD CCCCCCCCCCCCC
H:::::::H H:::::::HD::::::::::::DDD CCC::::::::::::C
H:::::::H H:::::::HD:::::::::::::::DD CC:::::::::::::::C
HH::::::H H::::::HHDDD:::::DDDDD:::::D C:::::CCCCCCCC::::C
H:::::H H:::::H D:::::D D:::::D C:::::C CCCCCC
H:::::H H:::::H D:::::D D:::::DC:::::C
H::::::HHHHH::::::H D:::::D D:::::DC:::::C
H:::::::::::::::::H D:::::D D:::::DC:::::C
H:::::::::::::::::H D:::::D D:::::DC:::::C
H::::::HHHHH::::::H D:::::D D:::::DC:::::C
H:::::H H:::::H D:::::D D:::::DC:::::C
H:::::H H:::::H D:::::D D:::::D C:::::C CCCCCC
HH::::::H H::::::HHDDD:::::DDDDD:::::D C:::::CCCCCCCC::::C
H:::::::H H:::::::HD:::::::::::::::DD CC:::::::::::::::C
H:::::::H H:::::::HD::::::::::::DDD CCC::::::::::::C
HHHHHHHHH HHHHHHHHHDDDDDDDDDDDDD CCCCCCCCCCCCC

--- What else ---
------------------------------------------------------------------


Proudly presents


Cleopatra.1963.1080p.BluRay.DTS.DL.x264-HDC


Genre.
Biography | Drama | History | Romance


Tagline.
The motion picture the world has been waiting for!


Plot.
Historical epic. The triumphs and tragedy of the Egyptian queen, Cleopatra.


General Information.
Release.Name.........: Cleopatra.1963.1080p.BluRay.DTS.DL.x264-HDC
Release.Date ........: 25.01.2012
RUNTIME..............: 04h:11m:08s
SIZE.................: 31.8 GB
VIDEO CODEC..........: x264 [@LVL4.1][DXVA]
FRAMERATE............: 23.976 fps
BITRATE..............: 15725/17830 kbps [Source 27748/28454 kbps]
RESOLUTION...........: 1920x866
PRIMARY.AUDIO........: German 5.1 DTS @ 768 kbps
SECONDARY.AUDIO......: English 3.1 AC3 @ 448 kbps
CPMMENTARY.AUDIO.....: English 2.0 OGG @ 80 kbps
SUBTITLES............: ger forced, ger, ger com, eng, ita forced, ita, ita com
CHAPTERS.............: Yes like BluRay
SOURCE...............: Cleopatra 50th Anniversary Edition BluRay 1080p AVC DTS-HD MA 5.1-HDCLUB
IMDB.RATING..........: 6.8/10 10.507 votes
IMDB.LINK............: [Link nur für registrierte und freigeschaltete Benutzer sichtbar]



x264 [info]: frame I:1160 Avg QP:16.46 size:263363
x264 [info]: frame P:33137 Avg QP:17.12 size:137126
x264 [info]: frame B:137720 Avg QP:19.59 size: 67191

x264 [info]: SSIM Mean Y:0.9800119

encoded 172017 frames, 2.47 fps, 15725.53 kb/s

x264 [info]: frame I:1264 Avg QP:16.47 size:263892
x264 [info]: frame P:35645 Avg QP:17.30 size:148911
x264 [info]: frame B:152346 Avg QP:19.50 size: 78451

x264 [info]: SSIM Mean Y:0.9790079

encoded 189255 frames, 2.21 fps, 17830.55 kb/s


Sprache: Dubs: German, English; Subs: German, English, Italian
Länge: 4h 11mn
Größe: 31.8 GiB (34x1000MiB Parts)
Gruppe: HDC
Quelle: BluRay


[Link nur für registrierte und freigeschaltete Benutzer sichtbar]

Enthaltene Dateien:

Cleopatra.1963.1080p.BluRay.DTS.DL.x264-HDC.mkv
Cleopatra.1963.1080p.BluRay.DTS.DL.x264-HDC.nfo

Download:

[Link nur für registrierte und freigeschaltete Benutzer sichtbar] Cleopatra.1963.1080p.BluRay.DTS.DL.x264-HDC ([Link nur für registrierte und freigeschaltete Benutzer sichtbar])

1fichier, MEGA, Share-Online, Uploaded