PDA

Archiv verlassen und diese Seite im Standarddesign anzeigen : Schwarzer Blitz Chernaya Molniya 2009 1080p BluRay DTS DL x264 - HDC



Zarroc
17.07.14, 06:52
Chernaya.Molniya.2009.1080p.BluRay.DTS.DL.x264-HDC
aka "Schwarzer Blitz"

[Link nur für registrierte und freigeschaltete Benutzer sichtbar]


Als der Student Dima (Grigoriy Dobrygin) von seinem Vater einen schwarzen Wolga geschenkt bekommt, das russische Auto schlechthin, ahnt er nicht im Ansatz, was für Folgen das hat. Denn das Vehikel kann aufgrund des geheimnisvollen Kristalls Nanocatalyst fliegen. Dima stellt damit jedoch kaum was Sinnvolles an, weil er hinter Nastya (Ekaterina Vilkova) her ist. Das fordert seine ganze Aufmerksamkeit. Doch dann wird sein Vater bei einem Angriff getötet, den er möglicherweise hätte verhindern können, wenn er nicht zu sehr mit sich selbst beschäftigt gewesen wäre. Die Schuldgefühle wandelt Dima in die Verpflichtung um, gegen das Böse zu kämpfen. Mit dem Geschäftsmann Kuptsov (Viktor Verzhbitskiy) bietet sich ihm auch gleich der richtige Gegner. Kuptsov will mithilfe des Nanocatalyst eine Maschine zur Förderung umfangreicher Diamantenvorkommen im Boden unter Moskau betreiben. Das Vorhaben gefährdet ganz Moskau, sodass Dima Kuptsov zur Strecke bringen muss.

MediaInfo:

General
Unique ID : 186069424455832711508566290456514865906 (0x8BFBAAE9C34D02ACA34F23108D132AF2)
Complete name : Chernaya.Molniya.2009.1080p.BluRay.DTS.DL.x264-HDC.mkv
Format : Matroska
Format version : Version 2
File size : 11.9 GiB
Duration : 1h 46mn
Overall bit rate : 16.1 Mbps
Encoded date : UTC 2011-12-25 19:09:27
Writing application : mkvmerge v5.2.0 ('I can't explain') built on Dec 18 2011 18:12:03
Writing library : libebml v1.2.3 + libmatroska v1.3.0

Video
ID : 1
Format : AVC
Format/Info : Advanced Video Codec
Format profile : High@L4.1
Format settings, CABAC : Yes
Format settings, ReFrames : 5 frames
Codec ID : V_MPEG4/ISO/AVC
Duration : 1h 46mn
Bit rate : 14.5 Mbps
Width : 1 920 pixels
Height : 816 pixels
Display aspect ratio : 2.35:1
Frame rate mode : Constant
Frame rate : 23.976 fps
Color space : YUV
Chroma subsampling : 4:2:0
Bit depth : 8 bits
Scan type : Progressive
Bits/(Pixel*Frame) : 0.386
Stream size : 10.5 GiB (88%)
Writing library : x264 core 120 r2120 0c7dab9
Encoding settings : cabac=1 / ref=5 / deblock=1:-3:-3 / analyse=0x3:0x113 / me=umh / subme=9 / psy=1 / psy_rd=1.00:0.00 / mixed_ref=1 / me_range=32 / chroma_me=1 / trellis=2 / 8x8dct=1 / cqm=0 / deadzone=21,11 / fast_pskip=0 / chroma_qp_offset=-2 / threads=6 / sliced_threads=0 / nr=0 / decimate=0 / interlaced=0 / bluray_compat=0 / constrained_intra=0 / bframes=4 / b_pyramid=2 / b_adapt=2 / b_bias=0 / direct=3 / weightb=1 / open_gop=0 / weightp=2 / keyint=250 / keyint_min=23 / scenecut=40 / intra_refresh=0 / rc_lookahead=80 / rc=2pass / mbtree=1 / bitrate=14513 / ratetol=1.0 / qcomp=0.70 / qpmin=0 / qpmax=69 / qpstep=4 / cplxblur=20.0 / qblur=0.5 / ip_ratio=1.10 / aq=1:0.90
Language : English
Default : Yes
Forced : No

Audio #1
ID : 2
Format : DTS
Format/Info : Digital Theater Systems
Mode : 16
Format settings, Endianness : Big
Codec ID : A_DTS
Duration : 1h 46mn
Bit rate mode : Constant
Bit rate : 768 Kbps
Channel(s) : 6 channels
Channel positions : Front: L C R, Side: L R, LFE
Sampling rate : 48.0 KHz
Bit depth : 24 bits
Compression mode : Lossy
Stream size : 583 MiB (5%)
Title : German 5.1 DTS @ 768 kbps
Language : German
Default : Yes
Forced : Yes

Audio #2
ID : 3
Format : DTS
Format/Info : Digital Theater Systems
Mode : 16
Format settings, Endianness : Big
Codec ID : A_DTS
Duration : 1h 46mn
Bit rate mode : Constant
Bit rate : 768 Kbps
Channel(s) : 6 channels
Channel positions : Front: L C R, Side: L R, LFE
Sampling rate : 48.0 KHz
Bit depth : 24 bits
Compression mode : Lossy
Stream size : 583 MiB (5%)
Title : English 5.1 DTS @ 768 kbps
Language : English
Default : No
Forced : No

Text #1
ID : 4
Format : UTF-8
Codec ID : S_TEXT/UTF8
Codec ID/Info : UTF-8 Plain Text
Title : german
Language : German
Default : Yes
Forced : Yes

Text #2
ID : 5
Format : UTF-8
Codec ID : S_TEXT/UTF8
Codec ID/Info : UTF-8 Plain Text
Title : english
Language : English
Default : No
Forced : No

Text #3
ID : 6
Format : UTF-8
Codec ID : S_TEXT/UTF8
Codec ID/Info : UTF-8 Plain Text
Title : italian
Language : Italian
Default : No
Forced : No

Menu
00:00:00.000 : :00:00:00.000
00:05:03.220 : :00:05:03.220
00:12:04.599 : :00:12:04.599
00:18:18.848 : :00:18:18.848
00:24:13.827 : :00:24:13.827
00:27:45.247 : :00:27:45.247
00:36:19.094 : :00:36:19.094
00:39:55.727 : :00:39:55.727
00:47:09.702 : :00:47:09.702
00:51:45.227 : :00:51:45.227
00:59:39.367 : :00:59:39.367
01:04:17.812 : :01:04:17.812
01:11:04.552 : :01:11:04.552
01:17:50.875 : :01:17:50.875
01:21:06.028 : :01:21:06.028
01:28:54.913 : :01:28:54.913
01:34:54.105 : :01:34:54.105
01:40:36.948 : :01:40:36.948



NFO:

HHHHHHHHH HHHHHHHHHDDDDDDDDDDDDD CCCCCCCCCCCCC
H:::::::H H:::::::HD::::::::::::DDD CCC::::::::::::C
H:::::::H H:::::::HD:::::::::::::::DD CC:::::::::::::::C
HH::::::H H::::::HHDDD:::::DDDDD:::::D C:::::CCCCCCCC::::C
H:::::H H:::::H D:::::D D:::::D C:::::C CCCCCC
H:::::H H:::::H D:::::D D:::::DC:::::C
H::::::HHHHH::::::H D:::::D D:::::DC:::::C
H:::::::::::::::::H D:::::D D:::::DC:::::C
H:::::::::::::::::H D:::::D D:::::DC:::::C
H::::::HHHHH::::::H D:::::D D:::::DC:::::C
H:::::H H:::::H D:::::D D:::::DC:::::C
H:::::H H:::::H D:::::D D:::::D C:::::C CCCCCC
HH::::::H H::::::HHDDD:::::DDDDD:::::D C:::::CCCCCCCC::::C
H:::::::H H:::::::HD:::::::::::::::DD CC:::::::::::::::C
H:::::::H H:::::::HD::::::::::::DDD CCC::::::::::::C
HHHHHHHHH HHHHHHHHHDDDDDDDDDDDDD CCCCCCCCCCCCC

--- What else ---
------------------------------------------------------------------


Proudly presents


Chernaya.Molniya.2009.1080p.BluRay.DTS.DL.x264-HDC


Genre.
Action | Adventure | Fantasy | Sci-Fi | Thriller


Tagline.
Prepare for the thrill ride of your life!


Plot.
Moscow, 2004, and wealthy entrepreneur Kuptsov is drilling in the
underground part of the city, trying to reach a huge diamond vein...


General Information.
Release.Name.........: Chernaya.Molniya.2009.1080p.BluRay.DTS.DL.x264-HDC
Release.Date ........: 25.12.2011
RUNTIME..............: 01h:45m:08s
SIZE.................: 11.9 GB
VIDEO CODEC..........: x264 [@LVL4.1][DXVA]
FRAMERATE............: 23.976 fps
BITRATE..............: 14513 kbps [Source 28827 kbps]
RESOLUTION...........: 1920x816
PRIMARY.AUDIO........: German 5.1 DTS @ 768 kbps
SECONDARY.AUDIO.1....: English 5.1 DTS @ 768 kbps
SUBTITLES............: ger , eng, ita
CHAPTERS.............: Yes like BluRay
SOURCE...............: Schwarzer.Blitz.2009.German.DTS.DL.1080p.VC1.Remux-VIAHD + chapters + x
IMDB.RATING..........: 5.9/10 2.016 votes
IMDB.LINK............: [Link nur für registrierte und freigeschaltete Benutzer sichtbar]


x264 [info]: frame I:1503 Avg QP:15.04 size:173062
x264 [info]: frame P:41152 Avg QP:15.69 size:103994
x264 [info]: frame B:110032 Avg QP:17.14 size: 63738

x264 [info]: SSIM Mean Y:0.9856505

encoded 152687 frames, 1.54 fps, 14512.91 kb/s


Sprache: Dubs: German, English; Subs: German, English, Italian
Länge: 1h 46mn
Größe: 11.9 GiB (13x1000MiB Parts)
Gruppe: HDC
Quelle: BluRay


[Link nur für registrierte und freigeschaltete Benutzer sichtbar]

Enthaltene Dateien:

Chernaya.Molniya.2009.1080p.BluRay.DTS.DL.x264-HDC.mkv
Chernaya.Molniya.2009.1080p.BluRay.DTS.DL.x264-HDC.nfo

Download:

[Link nur für registrierte und freigeschaltete Benutzer sichtbar] Chernaya.Molniya.2009.1080p.BluRay.DTS.DL.x264-HDC ([Link nur für registrierte und freigeschaltete Benutzer sichtbar])

1fichier, MEGA, Share-Online, Uploaded