PDA

Archiv verlassen und diese Seite im Standarddesign anzeigen : Centurion 2010 1080p BluRay DTS DL x264 - HDC



Zarroc
17.07.14, 05:51
Centurion.2010.1080p.BluRay.DTS.DL.x264-HDC

[Link nur für registrierte und freigeschaltete Benutzer sichtbar]


Das Jahr 117 n. Christus: Die Römer haben Teile Großbritanniens besetzt, die Invasion dauert an. Als besonders widerstandsfähig entpuppen sich die Pikten. Bei einem ihrer Angriffe auf ein römisches Grenzfort kommen alle bis auf Quintus Dias (Michael Fassbender) ums Leben. Nach Rache sinnend schließt er sich der legendären neunten Legion von General Virilus (Dominic West) an. Gemeinsam zieht man nach Norden, um die Pikten vom Erdboden zu tilgen. Dann kommt es zur Katastrophe: Die adoptierte Kundschafterin Etain (Olga Kurylenko) verrät das Heer an ihre Landsmänner, bloß sieben Legionäre überleben das folgende Blutbad. Die Flucht gen Süden ist für Zenturio Quintus Dias allerdings keine Option...

MediaInfo:

General
Unique ID : 201895080655609442874618518155633746099 (0x97E394015ED5F27C8C5055D3BE55E0B3)
Complete name : Centurion.2010.1080p.BluRay.DTS.DL.x264-HDC.mkv
Format : Matroska
Format version : Version 2
File size : 12.5 GiB
Duration : 1h 37mn
Overall bit rate : 18.3 Mbps
Encoded date : UTC 2010-10-05 13:33:32
Writing application : mkvmerge v4.0.0 ('The Stars were mine') built on Jun 6 2010 16:18:42
Writing library : libebml v1.0.0 + libmatroska v1.0.0

Video
ID : 1
Format : AVC
Format/Info : Advanced Video Codec
Format profile : High@L4.1
Format settings, CABAC : Yes
Format settings, ReFrames : 5 frames
Codec ID : V_MPEG4/ISO/AVC
Duration : 1h 37mn
Bit rate : 15.3 Mbps
Width : 1 920 pixels
Height : 818 pixels
Display aspect ratio : 2.35:1
Frame rate mode : Constant
Frame rate : 24.000 fps
Color space : YUV
Chroma subsampling : 4:2:0
Bit depth : 8 bits
Scan type : Progressive
Bits/(Pixel*Frame) : 0.406
Stream size : 10.2 GiB (82%)
Title : 15 Mbps AVC MPEG-4
Writing library : x264 core 105 r1732+287 0d84d17
Encoding settings : cabac=1 / ref=5 / deblock=1:-3:-3 / analyse=0x3:0x113 / me=umh / subme=9 / psy=1 / fade_compensate=0.00 / psy_rd=0.90:0.00 / mixed_ref=1 / me_range=24 / chroma_me=1 / trellis=2 / 8x8dct=1 / cqm=0 / deadzone=21,11 / fast_pskip=1 / chroma_qp_offset=-2 / threads=6 / sliced_threads=0 / nr=0 / decimate=1 / interlaced=0 / constrained_intra=0 / fgo=0 / bframes=5 / b_pyramid=2 / b_adapt=2 / b_bias=0 / direct=3 / weightb=1 / open_gop=0 / weightp=2 / keyint=250 / keyint_min=24 / scenecut=40 / intra_refresh=0 / rc_lookahead=100 / rc=2pass / mbtree=1 / bitrate=15314 / ratetol=1.0 / qcomp=0.80 / qpmin=10 / qpmax=51 / qpstep=4 / cplxblur=20.0 / qblur=0.5 / ip_ratio=1.40 / aq=1:0.80
Language : German
Default : No
Forced : No

Audio #1
ID : 2
Format : DTS
Format/Info : Digital Theater Systems
Mode : 16
Format settings, Endianness : Big
Codec ID : A_DTS
Duration : 1h 37mn
Bit rate mode : Constant
Bit rate : 1 509 Kbps
Channel count : 6 channels
Channel positions : Front: L C R, Side: L R, LFE
Sampling rate : 48.0 KHz
Bit depth : 24 bits
Compression mode : Lossy
Stream size : 1.03 GiB (8%)
Title : 5.1 DTS @ 1510 kbps
Language : German
Default : Yes
Forced : Yes

Audio #2
ID : 3
Format : DTS
Format/Info : Digital Theater Systems
Mode : 16
Format settings, Endianness : Big
Codec ID : A_DTS
Duration : 1h 37mn
Bit rate mode : Constant
Bit rate : 1 509 Kbps
Channel count : 6 channels
Channel positions : Front: L C R, Side: L R, LFE
Sampling rate : 48.0 KHz
Bit depth : 24 bits
Compression mode : Lossy
Stream size : 1.03 GiB (8%)
Title : 5.1 DTS @ 1510 kbps
Language : English
Default : No
Forced : No

Text #1
ID : 4
Format : VobSub
Muxing mode : zlib
Codec ID : S_VOBSUB
Codec ID/Info : The same subtitle format used on DVDs
Language : German
Default : No
Forced : No

Text #2
ID : 5
Format : VobSub
Muxing mode : zlib
Codec ID : S_VOBSUB
Codec ID/Info : The same subtitle format used on DVDs
Language : English
Default : No
Forced : No

Menu
00:00:00.000 : en:00:00:00.000
00:05:42.167 : en:00:05:42.167
00:11:55.125 : en:00:11:55.125
00:17:05.292 : en:00:17:05.292
00:22:44.458 : en:00:22:44.458
00:29:18.625 : en:00:29:18.625
00:35:03.792 : en:00:35:03.792
00:40:41.708 : en:00:40:41.708
00:44:55.667 : en:00:44:55.667
00:49:20.625 : en:00:49:20.625
00:54:55.292 : en:00:54:55.292
01:02:06.625 : en:01:02:06.625
01:06:38.792 : en:01:06:38.792
01:12:10.000 : en:01:12:10.000
01:18:23.250 : en:01:18:23.250
01:24:49.542 : en:01:24:49.542
01:30:24.833 : en:01:30:24.833
01:33:28.292 : en:01:33:28.292



NFO:

HHHHHHHHH HHHHHHHHHDDDDDDDDDDDDD CCCCCCCCCCCCC
H:::::::H H:::::::HD::::::::::::DDD CCC::::::::::::C
H:::::::H H:::::::HD:::::::::::::::DD CC:::::::::::::::C
HH::::::H H::::::HHDDD:::::DDDDD:::::D C:::::CCCCCCCC::::C
H:::::H H:::::H D:::::D D:::::D C:::::C CCCCCC
H:::::H H:::::H D:::::D D:::::DC:::::C
H::::::HHHHH::::::H D:::::D D:::::DC:::::C
H:::::::::::::::::H D:::::D D:::::DC:::::C
H:::::::::::::::::H D:::::D D:::::DC:::::C
H::::::HHHHH::::::H D:::::D D:::::DC:::::C
H:::::H H:::::H D:::::D D:::::DC:::::C
H:::::H H:::::H D:::::D D:::::D C:::::C CCCCCC
HH::::::H H::::::HHDDD:::::DDDDD:::::D C:::::CCCCCCCC::::C
H:::::::H H:::::::HD:::::::::::::::DD CC:::::::::::::::C
H:::::::H H:::::::HD::::::::::::DDD CCC::::::::::::C
HHHHHHHHH HHHHHHHHHDDDDDDDDDDDDD CCCCCCCCCCCCC

--- What else ---
------------------------------------------------------------------


Proudly presents


Centurion.2010.1080p.BluRay.DTS.DL.x264-HDC


Director.
Neil Marshall


Genre.
Action | Adventure | Drama | History | Thriller | War


Tagline.
Fight or die.


Plot.
A splinter group of Roman soldiers fight for their lives behind
enemy lines after their legion is decimated in a devastating
guerrilla attack.


General Information
RELEASE.DATE...........: 05.10.2010
RUNTIME................: 01h:37m:38s
SIZE...................: 12.5 GB
VIDEO.CODEC............: x264 [LVL4.1][DXVA]
FRAMERATE..............: 24.000 fps
BITRATE................: 15312 kbps [Source = 26086 kbps]
RESOLUTION.............: 1920x818 [AR 2.35:1]
PRIMARY.AUDIO..........: German 5.1 DTS @ 1510 kbps
SECONDARY.AUDIO........: English 5.1 DTS @ 1510 kbps
SUBTITLES..............: German,English
CHAPTERS...............: Yes
SOURCE.................: Centurion 2010 1080p Blu-ray AVC DTS-HD 5.1
IMDB.RATING............: 6.4/10 (10,048 votes)
IMDB.LINK..............: [Link nur für registrierte und freigeschaltete Benutzer sichtbar]


x264 [info]: profile High, level 4.1

x264 [info]: frame I:1243 Avg QP:15.64 size:219571
x264 [info]: frame P:34837 Avg QP:18.09 size:110399
x264 [info]: frame B:104536 Avg QP:19.44 size: 67879
x264 [info]: consecutive B-frames: 2.8% 4.6% 12.0% 23.2% 16.5% 40.9%
x264 [info]: SSIM Mean Y:0.9795262 (16.888db)

encoded 140616 frames, 2.19 fps, 15312.84 kb/s



Sprache: Dubs: German, English; Subs: German, English
Länge: 1h 37mn
Größe: 12.5 GiB (13x1000MiB Parts)
Gruppe: HDC
Quelle: BluRay


[Link nur für registrierte und freigeschaltete Benutzer sichtbar]

Enthaltene Dateien:

Centurion.2010.1080p.BluRay.DTS.DL.x264-HDC.mkv
Centurion.2010.1080p.BluRay.DTS.DL.x264-HDC.nfo

Download:

[Link nur für registrierte und freigeschaltete Benutzer sichtbar] Centurion.2010.1080p.BluRay.DTS.DL.x264-HDC ([Link nur für registrierte und freigeschaltete Benutzer sichtbar])

1fichier, MEGA, Share-Online, Uploaded