PDA

Archiv verlassen und diese Seite im Standarddesign anzeigen : Barton Fink 1991 1080p BluRay DTS DL x264 - HDC



Zarroc
17.07.14, 06:47
Barton.Fink.1991.1080p.BluRay.DTS.DL.x264-HDC

[Link nur für registrierte und freigeschaltete Benutzer sichtbar]


Nachdem der Theaterautor Barton Fink (John Turturro) Anfang der 1940er Jahre einen großen Erfolg am New Yorker Broadway feiern konnte, dauert es nicht lange, bis Hollywood anklopft. Beherzt macht sich Fink auf den Weg in die Traumfabrik, um eine Karriere als Drehbuchschreiber zu starten. Da ihm sein Auftraggeber Jack Lipnick (Michael Lerner) aber nur belanglose Worthülsen um die Ohren haut, um das gewünschte Drehbuch zu charakterisieren, wird Fink von einer Schreibblockade heimgesucht. Das fast leere, heruntergekommene Hotel mit schäbiger Inneneinrichtung und widerlichen Tapeten, in dem Fink auf eigenen Wunsch wohnt, ist ihm in der Situation auch keine Hilfe. Der Druck auf ihn wächst, etwas Großes zu schreiben. Und da sich seine Produzenten und andere Kreative aus dem Hollywoodsystem als völlig nutzlos erweisen, um ihn zu unterstützen, ist vielleicht sein grobschlächtig wirkender Hotelnachbar Charlie Meadows (John Goodman) der entscheidende Schlüssel zum Erfolg.

MediaInfo:

General
Unique ID : 186917856123408691962847870540746843800 (0x8C9F11D2EF8BE58EA4DF45AABC63E698)
Complete name : Barton.Fink.1991.1080p.BluRay.DTS.DL.x264-HDC.mkv
Format : Matroska
Format version : Version 2
File size : 16.9 GiB
Duration : 1h 56mn
Overall bit rate : 20.7 Mbps
Encoded date : UTC 2012-01-04 20:43:38
Writing application : mkvmerge v5.2.0 ('I can't explain') built on Dec 18 2011 18:12:03
Writing library : libebml v1.2.3 + libmatroska v1.3.0

Video
ID : 1
Format : AVC
Format/Info : Advanced Video Codec
Format profile : High@L4.1
Format settings, CABAC : Yes
Format settings, ReFrames : 4 frames
Codec ID : V_MPEG4/ISO/AVC
Duration : 1h 56mn
Bit rate : 18.4 Mbps
Width : 1 920 pixels
Height : 1 040 pixels
Display aspect ratio : 1.85:1
Frame rate mode : Constant
Frame rate : 23.976 fps
Color space : YUV
Chroma subsampling : 4:2:0
Bit depth : 8 bits
Scan type : Progressive
Bits/(Pixel*Frame) : 0.384
Stream size : 14.7 GiB (87%)
Writing library : x264 core 120 r2120 0c7dab9
Encoding settings : cabac=1 / ref=4 / deblock=1:-1:-1 / analyse=0x3:0x113 / me=umh / subme=9 / psy=1 / psy_rd=1.00:0.00 / mixed_ref=1 / me_range=32 / chroma_me=1 / trellis=2 / 8x8dct=1 / cqm=0 / deadzone=6,6 / fast_pskip=0 / chroma_qp_offset=-2 / threads=6 / sliced_threads=0 / nr=0 / decimate=0 / interlaced=0 / bluray_compat=0 / constrained_intra=0 / bframes=3 / b_pyramid=2 / b_adapt=2 / b_bias=-5 / direct=3 / weightb=1 / open_gop=0 / weightp=2 / keyint=250 / keyint_min=23 / scenecut=40 / intra_refresh=0 / rc=2pass / mbtree=0 / bitrate=18400 / ratetol=1.0 / qcomp=0.70 / qpmin=0 / qpmax=69 / qpstep=4 / cplxblur=20.0 / qblur=0.5 / ip_ratio=1.10 / pb_ratio=1.10 / aq=2:0.60
Language : English
Default : Yes
Forced : No

Audio #1
ID : 2
Format : DTS
Format/Info : Digital Theater Systems
Mode : 16
Format settings, Endianness : Big
Codec ID : A_DTS
Duration : 1h 56mn
Bit rate mode : Constant
Bit rate : 768 Kbps
Channel(s) : 2 channels
Channel positions : Front: L R
Sampling rate : 48.0 KHz
Bit depth : 24 bits
Compression mode : Lossy
Stream size : 642 MiB (4%)
Title : German 2.0 DTS @ 768 kbps
Language : German
Default : Yes
Forced : No

Audio #2
ID : 3
Format : DTS
Format/Info : Digital Theater Systems
Mode : 16
Format settings, Endianness : Big
Codec ID : A_DTS
Duration : 1h 56mn
Bit rate mode : Constant
Bit rate : 1 509 Kbps
Channel(s) : 2 channels
Channel positions : Front: L R
Sampling rate : 48.0 KHz
Bit depth : 24 bits
Compression mode : Lossy
Stream size : 1.23 GiB (7%)
Title : English 2.0 DTS @ 1509 kbps
Language : English
Default : No
Forced : No

Text #1
ID : 4
Format : VobSub
Muxing mode : zlib
Codec ID : S_VOBSUB
Codec ID/Info : The same subtitle format used on DVDs
Title : german forced
Language : German
Default : Yes
Forced : No

Text #2
ID : 5
Format : VobSub
Muxing mode : zlib
Codec ID : S_VOBSUB
Codec ID/Info : The same subtitle format used on DVDs
Title : german
Language : German
Default : No
Forced : No

Text #3
ID : 6
Format : VobSub
Muxing mode : zlib
Codec ID : S_VOBSUB
Codec ID/Info : The same subtitle format used on DVDs
Title : english
Language : English
Default : No
Forced : No

Menu
00:00:00.000 : :00:00:00.000
00:07:52.722 : :00:07:52.722
00:14:00.214 : :00:14:00.214
00:18:31.402 : :00:18:31.402
00:29:21.051 : :00:29:21.051
00:34:51.214 : :00:34:51.214
00:37:12.689 : :00:37:12.689
00:44:05.268 : :00:44:05.268
00:49:25.921 : :00:49:25.921
00:56:14.413 : :00:56:14.413
01:00:41.179 : :01:00:41.179
01:15:52.339 : :01:15:52.339
01:20:36.248 : :01:20:36.248
01:24:34.027 : :01:24:34.027
01:33:58.424 : :01:33:58.424
01:36:53.391 : :01:36:53.391
01:47:15.054 : :01:47:15.054
01:53:10.909 : :01:53:10.909



NFO:

HHHHHHHHH HHHHHHHHHDDDDDDDDDDDDD CCCCCCCCCCCCC
H:::::::H H:::::::HD::::::::::::DDD CCC::::::::::::C
H:::::::H H:::::::HD:::::::::::::::DD CC:::::::::::::::C
HH::::::H H::::::HHDDD:::::DDDDD:::::D C:::::CCCCCCCC::::C
H:::::H H:::::H D:::::D D:::::D C:::::C CCCCCC
H:::::H H:::::H D:::::D D:::::DC:::::C
H::::::HHHHH::::::H D:::::D D:::::DC:::::C
H:::::::::::::::::H D:::::D D:::::DC:::::C
H:::::::::::::::::H D:::::D D:::::DC:::::C
H::::::HHHHH::::::H D:::::D D:::::DC:::::C
H:::::H H:::::H D:::::D D:::::DC:::::C
H:::::H H:::::H D:::::D D:::::D C:::::C CCCCCC
HH::::::H H::::::HHDDD:::::DDDDD:::::D C:::::CCCCCCCC::::C
H:::::::H H:::::::HD:::::::::::::::DD CC:::::::::::::::C
H:::::::H H:::::::HD::::::::::::DDD CCC::::::::::::C
HHHHHHHHH HHHHHHHHHDDDDDDDDDDDDD CCCCCCCCCCCCC

--- What else ---
------------------------------------------------------------------


Proudly presents


Barton.Fink.1991.1080p.BluRay.DTS.DL.x264-HDC


Genre.
Drama | Mystery | Thriller


Tagline.
Between Heaven and Hell There's Always Hollywood!


Plot.
In 1941, New York intellectual playwright Barton Fink comes to Hollywood to write a Wallace Beery wrestling picture...


General Information.
Release.Name.........: Barton.Fink.1991.1080p.BluRay.DTS.DL.x264-HDC
Release.Date ........: 06.01.2012
RUNTIME..............: 01h:56m:57s
SIZE.................: 16.9 GB
VIDEO CODEC..........: x264 [@LVL4.1][DXVA]
FRAMERATE............: 23.976 fps
BITRATE..............: 18400 kbps [Source 30450 kbps]
RESOLUTION...........: 1920x1040
PRIMARY.AUDIO........: German 2.0 DTS @ 768 kbps
SECONDARY.AUDIO.1....: English 2.0 DTS @ 1509 kbps
SUBTITLES............: ger forced, ger, eng
CHAPTERS.............: Yes like BluRay
SOURCE...............: Barton Fink 1991 1080p Blu-ray VC-1 DTS-HD MA 2.0
IMDB.RATING..........: 7.8/10 42.598 votes
IMDB.LINK............: [Link nur für registrierte und freigeschaltete Benutzer sichtbar]



x264 [info]: frame I:1082 Avg QP:21.20 size:170595
x264 [info]: frame P:54098 Avg QP:21.79 size:112317
x264 [info]: frame B:113060 Avg QP:22.59 size: 87377

x264 [info]: SSIM Mean Y:0.9647549

encoded 168240 frames, 1.23 fps, 18400.48 kb/s


Sprache: Dubs: German, English; Subs: German, English
Länge: 1h 56mn
Größe: 16.9 GiB (18x1000MiB Parts)
Gruppe: HDC
Quelle: BluRay


[Link nur für registrierte und freigeschaltete Benutzer sichtbar]

Enthaltene Dateien:

Barton.Fink.1991.1080p.BluRay.DTS.DL.x264-HDC.mkv
Barton.Fink.1991.1080p.BluRay.DTS.DL.x264-HDC.nfo

Download:

[Link nur für registrierte und freigeschaltete Benutzer sichtbar] Barton.Fink.1991.1080p.BluRay.DTS.DL.x264-HDC ([Link nur für registrierte und freigeschaltete Benutzer sichtbar])

1fichier, MEGA, Share-Online, Uploaded