PDA

Archiv verlassen und diese Seite im Standarddesign anzeigen : Eine dunkle Begierde A Dangerous Method 2011 1080p BluRay DTS DL x264 - HDC



Zarroc
17.07.14, 06:42
A.Dangerous.Method.2011.1080p.BluRay.DTS.DL.x264-HDC
aka "Eine dunkle Begierde"

[Link nur für registrierte und freigeschaltete Benutzer sichtbar]


Carl Gustav Jung (Michael Fassbender) hat so gut wie all seine Ziele erreicht - er ist Leiter der psychiatrischen Klinik Burghölzli, glücklich verheiratet und erwartet sein erstes Kind. Alles soll sich jedoch ändern, als die junge Russin Sabina Spielrein (Keira Knightley) wegen Hysterie in die Züricher Klinik eingeliefert wird. Bei den zahlreichen therapeutischen Sitzungen kommen sich Jung und sein schöne Patientin immer näher. Als die Affäre droht an die Öffentlichkeit zu gelangen, wendet sich Jung von Sabina ab, um seinen guten Ruf als Wissenschaftler nicht zu verlieren. Sabina verspürt währrenddessen den Drang, selbst Psychoanalytikerin zu werden. Also bewirbt sie sich bei Jungs langjährigem Kollegen und Mentor Sigmund Freud (Viggo Mortensen). Dieser nimmt sich ihrer an und erliegt kurze Zeit später ebenfalls ihren intellektuellen Reizen...

MediaInfo:

General
Unique ID : 192266859295253162537073956499909728566 (0x90A5400AAEB64B38A7A4778CB0F75936)
Complete name : A.Dangerous.Method.2011.1080p.BluRay.DTS.DL.x264-HDC.mkv
Format : Matroska
Format version : Version 4 / Version 2
File size : 10.9 GiB
Duration : 1h 39mn
Overall bit rate : 15.7 Mbps
Encoded date : UTC 2013-01-22 09:31:31
Writing application : mkvmerge v6.0.0 ('Coming Up For Air') built on Jan 20 2013 09:52:00
Writing library : libebml v1.3.0 + libmatroska v1.4.0

Video
ID : 1
Format : AVC
Format/Info : Advanced Video Codec
Format profile : High@L4.1
Format settings, CABAC : Yes
Format settings, ReFrames : 4 frames
Codec ID : V_MPEG4/ISO/AVC
Duration : 1h 39mn
Bit rate : 14.1 Mbps
Width : 1 920 pixels
Height : 1 040 pixels
Display aspect ratio : 1.85:1
Frame rate mode : Constant
Frame rate : 23.976 fps
Color space : YUV
Chroma subsampling : 4:2:0
Bit depth : 8 bits
Scan type : Progressive
Bits/(Pixel*Frame) : 0.295
Stream size : 9.65 GiB (88%)
Writing library : x264 core 129 r2245+729M 1a52e03
Encoding settings : cabac=1 / ref=4 / deblock=1:-3:-3 / analyse=0x3:0x113 / me=umh / subme=9 / psy=1 / fade_compensate=0.00 / psy_rd=1.00:0.00 / mixed_ref=1 / me_range=32 / chroma_me=1 / trellis=2 / 8x8dct=1 / cqm=0 / deadzone=21,11 / fast_pskip=1 / chroma_qp_offset=-2 / threads=6 / lookahead_threads=1 / sliced_threads=0 / nr=0 / decimate=1 / interlaced=0 / bluray_compat=0 / constrained_intra=0 / fgo=0 / bframes=6 / b_pyramid=2 / b_adapt=2 / b_bias=0 / direct=3 / weightb=1 / open_gop=0 / weightp=2 / keyint=250 / keyint_min=23 / scenecut=40 / intra_refresh=0 / rc_lookahead=120 / rc=2pass / mbtree=1 / bitrate=14121 / ratetol=1.0 / qcomp=0.80 / qpmin=0 / qpmax=69 / qpstep=4 / cplxblur=20.0 / qblur=0.5 / ip_ratio=1.40 / aq=1:0.80
Language : English
Default : Yes
Forced : No

Audio #1
ID : 2
Format : DTS
Format/Info : Digital Theater Systems
Mode : 16
Format settings, Endianness : Big
Codec ID : A_DTS
Duration : 1h 39mn
Bit rate mode : Constant
Bit rate : 768 Kbps
Channel(s) : 6 channels
Channel positions : Front: L C R, Side: L R, LFE
Sampling rate : 48.0 KHz
Bit depth : 24 bits
Compression mode : Lossy
Stream size : 548 MiB (5%)
Title : 5.1 DTS @ 755 kbps
Language : German
Default : Yes
Forced : Yes

Audio #2
ID : 3
Format : DTS
Format/Info : Digital Theater Systems
Mode : 16
Format settings, Endianness : Big
Codec ID : A_DTS
Duration : 1h 39mn
Bit rate mode : Constant
Bit rate : 768 Kbps
Channel(s) : 6 channels
Channel positions : Front: L C R, Side: L R, LFE
Sampling rate : 48.0 KHz
Bit depth : 24 bits
Compression mode : Lossy
Stream size : 548 MiB (5%)
Title : 5.1 DTS @ 755 kbps
Language : English
Default : No
Forced : No

Text #1
ID : 4
Format : VobSub
Muxing mode : zlib
Codec ID : S_VOBSUB
Codec ID/Info : The same subtitle format used on DVDs
Title : FORCED
Language : German
Default : Yes
Forced : Yes

Text #2
ID : 5
Format : VobSub
Muxing mode : zlib
Codec ID : S_VOBSUB
Codec ID/Info : The same subtitle format used on DVDs
Language : German
Default : No
Forced : No

Text #3
ID : 6
Format : VobSub
Muxing mode : zlib
Codec ID : S_VOBSUB
Codec ID/Info : The same subtitle format used on DVDs
Language : English
Default : No
Forced : No

Text #4
ID : 7
Format : VobSub
Muxing mode : zlib
Codec ID : S_VOBSUB
Codec ID/Info : The same subtitle format used on DVDs
Language : French
Default : No
Forced : No

Text #5
ID : 8
Format : VobSub
Muxing mode : zlib
Codec ID : S_VOBSUB
Codec ID/Info : The same subtitle format used on DVDs
Language : Spanish
Default : No
Forced : No

Menu
00:00:00.000 : en:00:00:00.000
00:05:09.309 : en:00:05:09.309
00:09:44.959 : en:00:09:44.959
00:15:35.893 : en:00:15:35.893
00:21:32.124 : en:00:21:32.124
00:25:36.326 : en:00:25:36.326
00:30:37.252 : en:00:30:37.252
00:36:42.117 : en:00:36:42.117
00:41:39.914 : en:00:41:39.914
00:46:20.444 : en:00:46:20.444
00:51:46.061 : en:00:51:46.061
00:57:23.857 : en:00:57:23.857
01:01:01.700 : en:01:01:01.700
01:06:34.991 : en:01:06:34.991
01:11:35.750 : en:01:11:35.750
01:16:48.854 : en:01:16:48.854
01:20:45.966 : en:01:20:45.966
01:27:12.352 : en:01:27:12.352
01:31:59.055 : en:01:31:59.055
01:35:39.525 : en:01:35:39.525



NFO:

HHHHHHHHH HHHHHHHHHDDDDDDDDDDDDD CCCCCCCCCCCCC
H:::::::H H:::::::HD::::::::::::DDD CCC::::::::::::C
H:::::::H H:::::::HD:::::::::::::::DD CC:::::::::::::::C
HH::::::H H::::::HHDDD:::::DDDDD:::::D C:::::CCCCCCCC::::C
H:::::H H:::::H D:::::D D:::::D C:::::C CCCCCC
H:::::H H:::::H D:::::D D:::::DC:::::C
H::::::HHHHH::::::H D:::::D D:::::DC:::::C
H:::::::::::::::::H D:::::D D:::::DC:::::C
H:::::::::::::::::H D:::::D D:::::DC:::::C
H::::::HHHHH::::::H D:::::D D:::::DC:::::C
H:::::H H:::::H D:::::D D:::::DC:::::C
H:::::H H:::::H D:::::D D:::::D C:::::C CCCCCC
HH::::::H H::::::HHDDD:::::DDDDD:::::D C:::::CCCCCCCC::::C
H:::::::H H:::::::HD:::::::::::::::DD CC:::::::::::::::C
H:::::::H H:::::::HD::::::::::::DDD CCC::::::::::::C
HHHHHHHHH HHHHHHHHHDDDDDDDDDDDDD CCCCCCCCCCCCC

--- What else ---
------------------------------------------------------------------


Proudly presents


A.Dangerous.Method.2011.1080p.BluRay.DTS.DL.x264-HDC


Director.
David Cronenberg


Genre.
Biography | Drama | Thriller


Tagline.
Based on the true story of Jung, Freud and the patient who came between them.


Plot.
A look at how the intense relationship between Carl Jung
and Sigmund Freud gives birth to psychoanalysis.


General Information
RELEASE.DATE...........: 22.01.2013
RUNTIME................: 01h:39m:50s
SIZE...................: 10.9 GB
VIDEO.CODEC............: x264 [LVL4.1][DXVA]
FRAMERATE..............: 23.976 fps
BITRATE................: 14120 kbps [Source = 28739 kbps]
RESOLUTION.............: 1920x1040 [AR 1.85:1]
PRIMARY.AUDIO..........: German 5.1 DTS @ 755 kbps
SECONDARY.AUDIO........: English 5.1 DTS @ 755 kbps
FORCED.SUBTITLE........: German
SUBTITLES..............: German,English,French,Spanish
CHAPTERS...............: Yes
SOURCE.................: A Dangerous Method 2011 1080p Blu-ray GER AVC DTS-HD MA 5.1 - SharpHD
IMDB.RATING............: 6.5/10 from 44,896 users
IMDB.LINK..............: [Link nur für registrierte und freigeschaltete Benutzer sichtbar]


x264 [info]: profile High, level 4.1

x264 [info]: frame I:1085 Avg QP:15.66 size:283041
x264 [info]: frame P:26886 Avg QP:17.97 size:107699
x264 [info]: frame B:115637 Avg QP:19.36 size: 63727
x264 [info]: consecutive B-frames: 1.1% 2.0% 2.8% 8.6% 29.4% 17.5% 38.7%
x264 [info]: SSIM Mean Y:0.9770867 (16.399db)

encoded 143608 frames, 6.75 fps, 14120.16 kb/s




Sprache: Dubs: German, English; Subs: German, English, French, Spanish
Länge: 1h 39mn
Größe: 10.9 GiB (12x1000MiB Parts)
Gruppe: HDC
Quelle: BluRay


[Link nur für registrierte und freigeschaltete Benutzer sichtbar]

Enthaltene Dateien:

A.Dangerous.Method.2011.1080p.BluRay.DTS.DL.x264-HDC.mkv
A.Dangerous.Method.2011.1080p.BluRay.DTS.DL.x264-HDC.nfo

Download:

[Link nur für registrierte und freigeschaltete Benutzer sichtbar] A.Dangerous.Method.2011.1080p.BluRay.DTS.DL.x264-HDC ([Link nur für registrierte und freigeschaltete Benutzer sichtbar])

1fichier, MEGA, Share-Online, Uploaded