PDA

Archiv verlassen und diese Seite im Standarddesign anzeigen : 47 Ronin 2013 1080p BluRay DTS DL x264 - HDC



Zarroc
17.07.14, 05:41
47.Ronin.2013.1080p.BluRay.DTS.DL.x264-HDC

[Link nur für registrierte und freigeschaltete Benutzer sichtbar]


Der heimtückische Lord Kira (Tadanobu Asano) schaltet seinen Rivalen Lord Asano (Min Tanaka) aus, indem er ihm keinen anderen Ausweg lässt als den rituellen Selbstmord. Zusätzlich nimmt Kira die Tochter des toten Widersachers gefangen und sorgt dafür, dass dessen Krieger ihre angesehene Stellung bei Hof verlieren. Oishi (Hiroyuki Sanada) übernimmt die Führung dieser 47 Samurai (= Ronin), die sich nun an Kira und seinen Mitstreitern rächen wollen. Einen Verbündeten finden die herrenlosen Krieger im Halbblut Kai (Keanu Reeves). Der Außenseiter kann den Samurai wertvolle Hilfestellung geben und hat überdies auch ganz persönliche Gründe, sich gegen Kira aufzulehnen. Der brutale Lord unterdrückt unterdessen mit der Unterstützung der mysteriösen Hexe Mizuki (Rinko Kikuchi) das Volk. Kai macht sich mit den 47 Samurai auf den Weg zu Kiras Festung, um dessen unheilvoller Herrschaft ein Ende zu bereiten, doch unterwegs erwarten sie Prüfungen und Gefahren, die gewöhnliche Krieger auf der Stelle vernichten würden.

MediaInfo:

General
Unique ID : 172970087239435437586366338229143961550 (0x8220D3B988A2D74983F9F694CCCD7FCE)
Complete name : 47.Ronin.2013.1080p.BluRay.DTS.DL.x264-HDC.mkv
Format : Matroska
Format version : Version 4 / Version 2
File size : 16.2 GiB
Duration : 1h 58mn
Overall bit rate : 19.5 Mbps
Encoded date : UTC 2014-05-15 18:42:46
Writing application : mkvmerge v6.9.1 ('Blue Panther') 64bit built on Apr 18 2014 18:23:38
Writing library : libebml v1.3.0 + libmatroska v1.4.1

Video
ID : 1
Format : AVC
Format/Info : Advanced Video Codec
Format profile : High@L4.1
Format settings, CABAC : Yes
Format settings, ReFrames : 4 frames
Codec ID : V_MPEG4/ISO/AVC
Duration : 1h 58mn
Bit rate : 17.2 Mbps
Width : 1 920 pixels
Height : 800 pixels
Display aspect ratio : 2.40:1
Frame rate mode : Constant
Frame rate : 23.976 fps
Color space : YUV
Chroma subsampling : 4:2:0
Bit depth : 8 bits
Scan type : Progressive
Bits/(Pixel*Frame) : 0.467
Stream size : 14.0 GiB (86%)
Writing library : x264 core 142 r2431 ac76440
Encoding settings : cabac=1 / ref=4 / deblock=1:-4:0 / analyse=0x3:0x113 / me=umh / subme=9 / psy=1 / psy_rd=1.25:0.50 / mixed_ref=1 / me_range=16 / chroma_me=1 / trellis=2 / 8x8dct=1 / cqm=0 / deadzone=21,11 / fast_pskip=0 / chroma_qp_offset=-4 / threads=8 / lookahead_threads=1 / sliced_threads=0 / nr=0 / decimate=1 / interlaced=0 / bluray_compat=0 / constrained_intra=0 / bframes=5 / b_pyramid=2 / b_adapt=2 / b_bias=0 / direct=3 / weightb=1 / open_gop=0 / weightp=2 / keyint=250 / keyint_min=23 / scenecut=40 / intra_refresh=0 / rc_lookahead=88 / rc=2pass / mbtree=1 / bitrate=17194 / ratetol=1.0 / qcomp=0.80 / qpmin=0 / qpmax=69 / qpstep=4 / cplxblur=20.0 / qblur=0.5 / ip_ratio=1.40 / aq=1:1.10
Default : Yes
Forced : No

Audio #1
ID : 2
Format : DTS
Format/Info : Digital Theater Systems
Mode : 16
Format settings, Endianness : Big
Codec ID : A_DTS
Duration : 1h 58mn
Bit rate mode : Constant
Bit rate : 768 Kbps
Channel(s) : 6 channels
Channel positions : Front: L C R, Side: L R, LFE
Sampling rate : 48.0 KHz
Bit depth : 24 bits
Compression mode : Lossy
Stream size : 651 MiB (4%)
Title : 5.1 DTS @ 768kbps
Language : German
Default : Yes
Forced : No

Audio #2
ID : 3
Format : DTS
Format/Info : Digital Theater Systems
Mode : 16
Format settings, Endianness : Big
Codec ID : A_DTS
Duration : 1h 58mn
Bit rate mode : Constant
Bit rate : 1 509 Kbps
Channel(s) : 6 channels
Channel positions : Front: L C R, Side: L R, LFE
Sampling rate : 48.0 KHz
Bit depth : 24 bits
Compression mode : Lossy
Stream size : 1.25 GiB (8%)
Title : 5.1 DTS @ 1509kbps
Language : English
Default : No
Forced : No

Text #1
ID : 4
Format : PGS
Codec ID : S_HDMV/PGS
Codec ID/Info : The same subtitle format used on BDs/HD-DVDs
Title : PGS
Language : German
Default : No
Forced : No

Text #2
ID : 5
Format : VobSub
Codec ID : S_VOBSUB
Codec ID/Info : The same subtitle format used on DVDs
Title : VOB
Language : German
Default : No
Forced : No

Text #3
ID : 6
Format : PGS
Codec ID : S_HDMV/PGS
Codec ID/Info : The same subtitle format used on BDs/HD-DVDs
Title : PGS
Language : English
Default : No
Forced : No

Text #4
ID : 7
Format : VobSub
Codec ID : S_VOBSUB
Codec ID/Info : The same subtitle format used on DVDs
Title : VOB
Language : English
Default : No
Forced : No

Text #5
ID : 8
Format : PGS
Codec ID : S_HDMV/PGS
Codec ID/Info : The same subtitle format used on BDs/HD-DVDs
Title : PGS
Language : Finnish
Default : No
Forced : No

Text #6
ID : 9
Format : VobSub
Codec ID : S_VOBSUB
Codec ID/Info : The same subtitle format used on DVDs
Title : VOB
Language : Finnish
Default : No
Forced : No

Text #7
ID : 10
Format : PGS
Codec ID : S_HDMV/PGS
Codec ID/Info : The same subtitle format used on BDs/HD-DVDs
Title : Forced PGS
Language : German
Default : Yes
Forced : Yes

Text #8
ID : 11
Format : VobSub
Codec ID : S_VOBSUB
Codec ID/Info : The same subtitle format used on DVDs
Title : Forced VOB
Language : German
Default : No
Forced : No

Menu
00:00:00.000 : en:00:00:00.000
00:04:27.559 : en:00:04:27.559
00:11:12.088 : en:00:11:12.088
00:16:27.820 : en:00:16:27.820
00:20:11.836 : en:00:20:11.836
00:26:52.319 : en:00:26:52.319
00:31:02.944 : en:00:31:02.944
00:36:10.627 : en:00:36:10.627
00:43:36.614 : en:00:43:36.614
00:50:14.511 : en:00:50:14.511
00:54:59.421 : en:00:54:59.421
00:59:54.049 : en:00:59:54.049
01:09:57.735 : en:01:09:57.735
01:13:59.018 : en:01:13:59.018
01:19:12.247 : en:01:19:12.247
01:24:17.386 : en:01:24:17.386
01:33:00.825 : en:01:33:00.825
01:38:55.555 : en:01:38:55.555
01:44:41.609 : en:01:44:41.609
01:48:38.303 : en:01:48:38.303



NFO:

HHHHHHHHH HHHHHHHHHDDDDDDDDDDDDD CCCCCCCCCCCCC
H:::::::H H:::::::HD::::::::::::DDD CCC::::::::::::C
H:::::::H H:::::::HD:::::::::::::::DD CC:::::::::::::::C
HH::::::H H::::::HHDDD:::::DDDDD:::::D C:::::CCCCCCCC::::C
H:::::H H:::::H D:::::D D:::::D C:::::C CCCCCC
H:::::H H:::::H D:::::D D:::::DC:::::C
H::::::HHHHH::::::H D:::::D D:::::DC:::::C
H:::::::::::::::::H D:::::D D:::::DC:::::C
H:::::::::::::::::H D:::::D D:::::DC:::::C
H::::::HHHHH::::::H D:::::D D:::::DC:::::C
H:::::H H:::::H D:::::D D:::::DC:::::C
H:::::H H:::::H D:::::D D:::::D C:::::C CCCCCC
HH::::::H H::::::HHDDD:::::DDDDD:::::D C:::::CCCCCCCC::::C
H:::::::H H:::::::HD:::::::::::::::DD CC:::::::::::::::C
H:::::::H H:::::::HD::::::::::::DDD CCC::::::::::::C
HHHHHHHHH HHHHHHHHHDDDDDDDDDDDDD CCCCCCCCCCCCC

--- What else ---
------------------------------------------------------------------


Proudly presents


47.Ronin.2013.1080p.BluRay.DTS.DL.x264-HDC


Genre.
Action | Adventure | Fantasy


Tagline.
This Christmas, seize eternity.


Plot.
A band of samurai set out to avenge the death and dishonor
of their master at the hands of a ruthless shogun.


General Information.
Release.Name.........: 47.Ronin.2013.1080p.BluRay.DTS.DL.x264-HDC
Release.Date ........: 16.05.2014
RUNTIME..............: 01h:58m:36s
SIZE.................: 16.1 GB
VIDEO CODEC..........: x264
FRAMERATE............: 23.976 fps
BITRATE..............: 17194 kbps [Source=28989 kbps]
RESOLUTION...........: 1920x800 [AR 2.40:1]
AUDIO.1..............: German 5.1 DTS @ 768 kbps
AUDIO.2..............: English 5.1 DTS @ 1509 kbps
SUBTITLES............: Ger, Eng, Fin
CHAPTERS.............: Yes, like BluRay
SOURCE.1.............: 47.Ronin.2013.1080p.EUR.Blu-ray.AVC.DTS-HD.MA.5.1-GrupoHDS (thx)
IMDB.RATING..........: 6,3/10 from 63 008 votes
IMDB.LINK............: [Link nur für registrierte und freigeschaltete Benutzer sichtbar]


x264 [info]: frame I:1595 Avg QP:14.70 size:279562
x264 [info]: frame P:42414 Avg QP:16.28 size:116783
x264 [info]: frame B:126598 Avg QP:17.67 size: 78155
encoded 170607 frames, 3.62 fps, 17193.92 kb/s

Sprache: Dubs: German, English; Subs: German, English, Finnish
Länge: 1h 58mn
Größe: 16.2 GiB (18x1000MiB Parts)
Gruppe: HDC
Quelle: BluRay


[Link nur für registrierte und freigeschaltete Benutzer sichtbar]

Enthaltene Dateien:

47.Ronin.2013.1080p.BluRay.DTS.DL.x264-HDC.mkv
47.Ronin.2013.1080p.BluRay.DTS.DL.x264-HDC.nfo

Download:

[Link nur für registrierte und freigeschaltete Benutzer sichtbar] 47.Ronin.2013.1080p.BluRay.DTS.DL.x264-HDC ([Link nur für registrierte und freigeschaltete Benutzer sichtbar])

1fichier, MEGA, Share-Online, Uploaded