PDA

Archiv verlassen und diese Seite im Standarddesign anzeigen : The Punisher 1989 UNRATED German 720p BluRay x264 - DETAiLS



King_alt
11.07.15, 16:22
Info
In den feuchten Röhren der Kanalisation haust der Punisher, ein verbitterter ExCop, dessen Racheakte gemä der Devise Wenn du schuldig bist, bist du tot die Unterwelt das Fürchten lehrt. Als die japanische Yakuza die örtliche Mafia ausbootet und die Kinder der Gangsterbosse als Geiseln nimmt, zwingt der Gangsterbo Franco den kinderlieben Punisher, bei einer Befreiungsaktion mitzumachen. Der Coup gelingt, und der Punisher radiert erst die japanische Killerarmee aus und bringt danach Franco um.

Via ShareLinks


[Link nur für registrierte und freigeschaltete Benutzer sichtbar] ([Link nur für registrierte und freigeschaltete Benutzer sichtbar])

[Link nur für registrierte und freigeschaltete Benutzer sichtbar] z ([Link nur für registrierte und freigeschaltete Benutzer sichtbar])

The.Punisher.1989.UNRATED.German.720p.BluRay.x264-DETAiLS



[Link nur für registrierte und freigeschaltete Benutzer sichtbar]
Dauer: 89min | Format: mkv | Größe: 3141 MB




Via LinkCrypt


[Link nur für registrierte und freigeschaltete Benutzer sichtbar] ([Link nur für registrierte und freigeschaltete Benutzer sichtbar])

[Link nur für registrierte und freigeschaltete Benutzer sichtbar] ([Link nur für registrierte und freigeschaltete Benutzer sichtbar])

NfocpN cRo










presents

The Punisher 1989
RELEASE DATE 27 04 2013
CiNE DATE 05 10 1989 DURATiON 89 MiN
GENRE Action Crime Drama








RELEASE INFO

RESOLUTiON 1280 x 696
ViDEO CODEC x264 4597kbps CRF20 ViDEO SOURCE Blu Ray Disc AUDiO STREAM German AC3 2 0 320kbps
SUBTiTLES German VobSubs







iMDB RATiNG 5 4 10 10 305 votes
iMDB LiNK http imdb com title tt0098141

GROUP INFO



[Link nur für registrierte und freigeschaltete Benutzer sichtbar]

Ghoststage
06.01.18, 14:45
[Link nur für registrierte und freigeschaltete Benutzer sichtbar]
Releasename
The.Punisher.1989.UNRATED.German.720p.BluRay.x264-DETAiLS
[Link nur für registrierte und freigeschaltete Benutzer sichtbar]
[Link nur für registrierte und freigeschaltete Benutzer sichtbar]
Titel: The Punisher [Link nur für registrierte und freigeschaltete Benutzer sichtbar] Director: Mark Goldblatt [Link nur für registrierte und freigeschaltete Benutzer sichtbar] Genre: Action
Laufzeit: 89 Min. [Link nur für registrierte und freigeschaltete Benutzer sichtbar] Sprache/n: Deutsch [Link nur für registrierte und freigeschaltete Benutzer sichtbar]
Video Stream: BD [Link nur für registrierte und freigeschaltete Benutzer sichtbar] Video Format: MPEG-4 H.264 / AVC
Audio Stream: Dolby Digital 2.0 [Link nur für registrierte und freigeschaltete Benutzer sichtbar] Notes: Unrated
Hoster: [Link nur für registrierte und freigeschaltete Benutzer sichtbar] [Link nur für registrierte und freigeschaltete Benutzer sichtbar]
Größe: 3187,71 MB [Link nur für registrierte und freigeschaltete Benutzer sichtbar] Part size: 1000 MB [Link nur für registrierte und freigeschaltete Benutzer sichtbar] Parts: 4 Dateien
[Link nur für registrierte und freigeschaltete Benutzer sichtbar]
[Link nur für registrierte und freigeschaltete Benutzer sichtbar]

[Link nur für registrierte und freigeschaltete Benutzer sichtbar]
[Link nur für registrierte und freigeschaltete Benutzer sichtbar]
[Link nur für registrierte und freigeschaltete Benutzer sichtbar]
In den feuchten Röhren der Kanalisation haust der Punisher, ein verbitterter Ex-Cop, dessen Racheakte gemäß der Devise "Wenn du schuldig bist, bist du tot" die Unterwelt das Fürchten lehrt. Als die japanische Yakuza die örtliche Mafia ausbootet und die Kinder der Gangsterbosse als Geiseln nimmt, zwingt der Gangsterboß Franco den kinderlieben Punisher, bei einer Befreiungsaktion mitzumachen. Der Coup gelingt, und der Punisher radiert erst die japanische Killerarmee aus und bringt danach Franco um.

Die Comicabenteuer des unbarmherzigen Punisher waren Vorlage zu diesem ungeheuer temporeichen Actionfilm, der die eindimensionale Plakativität des Comics perfekt umsetzt. Dolph Lundgrens brachiale Schauspielkunst gibt dem einsamen, in schwarzes Leder gekleideten Punisher Kraft und sein Munitionsverbrauch dürfte sogar den sämtlicher "Rambo"-Filme noch übertreffen. Jeroen Krabbe ("Im Angesicht des Todes") und Louis Gosset Jr. ("Der stählerne Adler") reihen sich als seine Gegenspieler von Mafia und Polizei in den Reigen der Gewalt ein. Ein lärmendes und kolossal unterhaltsames Actionspektakel, das sich auf Video zum Spitzenreiter entwickeln dürfte.
[Link nur für registrierte und freigeschaltete Benutzer sichtbar]
[Link nur für registrierte und freigeschaltete Benutzer sichtbar]
[Link nur für registrierte und freigeschaltete Benutzer sichtbar]

Duration : 1 h 29 min
Overall bit rate : 4 914 kb/s
Movie name : The Punisher (1989)
Encoded date : UTC 2013-04-27 10:28:44
Writing application : mkvmerge v6.1.0 ('Old Devil ) built on Mar 2 2013 14:32:37
Writing library : libebml v1.3.0 + libmatroska v1.4.0

Video
ID : 1
Format : AVC
Format/Info : Advanced Video Codec
Format profile : [email protected]
Format settings : CABAC / 5 Ref Frames
Format settings, CABAC : Yes
Format settings, ReFrames : 5 frames
Codec ID : V_MPEG4/ISO/AVC
Duration : 1 h 29 min
Bit rate : 4 496 kb/s
Width : 1 280 pixels
Height : 696 pixels
Display aspect ratio : 1.85:1
Frame rate mode : Constant
Frame rate : 23.976 (24000/1001) FPS
Color space : YUV
Chroma subsampling : 4:2:0
Bit depth : 8 bits
Scan type : Progressive
Bits/(Pixel*Frame : 0.210
Stream size : 2.81 GiB (91%)
Title : The Punisher (1989)
Writing library : x264 core 130 r2273 b3065e6
Encoding settings : cabac=1 / ref=5 / deblock=1:-1:-1 / analyse=0x3:0x133 / me=umh / subme=7 / psy=1 / psy_rd=1.00:0.15 / mixed_ref=1 / me_range=16 / chroma_me=1 / trellis=1 / 8x8dct=1 / cqm=0 / deadzone=21,11 / fast_pskip=0 / chroma_qp_offset=-3 / threads=12 / lookahead_threads=2 / sliced_threads=0 / nr=0 / decimate=1 / interlaced=0 / bluray_compat=0 / constrained_intra=0 / bframes=3 / b_pyramid=2 / b_adapt=1 / b_bias=0 / direct=3 / weightb=1 / open_gop=0 / weightp=2 / keyint=240 / keyint_min=23 / scenecut=40 / intra_refresh=0 / rc_lookahead=40 / rc=crf / mbtree=1 / crf=20.0 / qcomp=0.60 / qpmin=0 / qpmax=69 / qpstep=4 / vbv_maxrate=62500 / vbv_bufsize=78125 / crf_max=0.0 / nal_hrd=none / ip_ratio=1.40 / aq=1:1.00
Default : Yes
Forced : No

Audio
ID : 2
Format : AC-3
Format/Info : Audio Coding 3
Codec ID : A_AC3
Duration : 1 h 29 min
Bit rate mode : Constant
Bit rate : 320 kb/s
Channel(s : 2 channels
Channel positions : Front: L R
Sampling rate : 48.0 kHz
Frame rate : 31.250 FPS (1536 SPF)
Bit depth : 16 bits
Compression mode : Lossy
Stream size : 204 MiB (7%)
Title : AC3
Language : German
Service kind : Complete Main
Default : Yes
Forced : No

Menu
00:00:00.000 : de:00:00:00.000
00:02:37.199 : de:00:02:37.199
00:07:33.203 : de:00:07:33.203
00:10:20.328 : de:00:10:20.328
00:13:01.698 : de:00:13:01.698
00:21:23.282 : de:00:21:23.282
00:26:27.920 : de:00:26:27.920
00:34:05.877 : de:00:34:05.877
00:39:08.471 : de:00:39:08.471
00:48:48.175 : de:00:48:48.175
00:50:59.807 : de:00:50:59.807
00:58:25.335 : de:00:58:25.335
01:03:47.449 : de:01:03:47.449
01:07:30.713 : de:01:07:30.713
01:14:28.631 : de:01:14:28.631
01:24:52.254 : de:01:24:52.254[/url]
[Link nur für registrierte und freigeschaltete Benutzer sichtbar]
The.Punisher.1989.UNRATED.German.720p.BluRay.x264-DETAiLS ([Link nur für registrierte und freigeschaltete Benutzer sichtbar])
[Link nur für registrierte und freigeschaltete Benutzer sichtbar]
[url=[Link nur für registrierte und freigeschaltete Benutzer sichtbar]]The.Punisher.1989.UNRATED.German.720p.BluRay.x264-DETAiLS ([Link nur für registrierte und freigeschaltete Benutzer sichtbar])
[Link nur für registrierte und freigeschaltete Benutzer sichtbar]
Reups werde ich mehrmals die Woche vornehmen, es kann sein Das sich die Part Größe ändert. zb. 100MB oder 500 ist angegeben, dann könnte es bei einem ReUp 101/152/501MB usw.. sein.(Wenn es für die Moderation Ok ist). Sollten die Files auf verschiedene Hoster denselben Namen habe, sind sie untereinander Kompatibel, ansonsten kein Mirror. Wenn etwas down ist und es als online angezeigt wird, schreibe mir einfach eine PN Antwort und reup versuch garantiert solange ich die Files noch habe. Reupps für ca einen Monat oder bis zum neuen Release TS, Web,BD, Mic, LD, Retail sound. Es kann mal vorkommen das ein Release falsch getaggt ist daher schaut euch die MediaInfo an. Die Uploader sind nicht für die Video und Ton Qualität verantwortlich. Schaut das Sample an wenn eins vorhanden ist.