PDA

Archiv verlassen und diese Seite im Standarddesign anzeigen : Das Koenigreich der Katzen 2002 German AC3D DL 720p BluRay DTS x264 - msd



Ruhri
29.03.15, 21:34
Das.Koenigreich.der.Katzen.2002.German.AC3D.DL.720 p.BluRay.DTS.x264-msd
[Link nur für registrierte und freigeschaltete Benutzer sichtbar]

Das Königreich der Katzen
Genre: Adventure | Laufzeit: 72 Min. | Sprache/n: GER, ENG

Auf dem Heimweg von der Schule rettet die 17-jährige Haru eine Katze vor einem heranrasenden Lastwagen. Zu Harus Verblüffung bedankt sich die Katze artig - und macht sich eilig davon. Das Mädchen ist schon bereit, das Erlebnis als Einbildung abzutun, doch in der folgenden Nacht erhält sie Besuch von einer ganzen Prozession aufrecht gehender, sprechender Katzen. Ihr Anführer, der Katzenkönig, bedankt sich bei Haru, denn es war sein Sohn Prinz Lune, den sie gerettet hat. Dafür wird ihr nun die höchste Ehre des Katzenkönigreichs zuteil: Sie soll den Prinzen heiraten! Diese Dankesbezeugung ist Haru nun doch etwas zuviel. Auf Anraten einer mitfühlenden Katze wendet sie sich hilfesuchend an das "Katzenbüro" des exzentrischen Katers Humbert von Gikkingen. Der Baron verspricht, sie zusammen mit seinen Kollegen, dem stets hungrigen Kater Muta und der Krähe Toto, vor der Zwangsheirat zu bewahren. Als der skrupellose Katzenkönig Haru in sein Reich entführen lässt, macht sich das ungewöhnliche Trio zu ihrer Rettung auf.

NFO:


Format : Matroska
Format version : Version 4 / Version 2
File size : 3.53 GiB
Duration : 1h 15mn
Overall bit rate : 6 738 Kbps
Encoded date : UTC 2013-12-13 19:06:46
Writing application : mkvmerge v6.6.0 ('The Edge Of The In Between') built on Dec 1 2013 17:55:00
Writing library : libebml v1.3.0 + libmatroska v1.4.1

Video
ID : 1
Format : AVC
Format/Info : Advanced Video Codec
Format profile : [email protected]
Format settings, CABAC : Yes
Format settings, ReFrames : 9 frames
Codec ID : V_MPEG4/ISO/AVC
Duration : 1h 15mn
Bit rate : 4 778 Kbps
Width : 1 280 pixels
Height : 690 pixels
Display aspect ratio : 1.85:1
Original display aspect rat : 1.85:1
Frame rate mode : Constant
Frame rate : 23.976 fps
Color space : YUV
Chroma subsampling : 4:2:0
Bit depth : 8 bits
Scan type : Progressive
Bits/(Pixel*Frame) : 0.226
Stream size : 2.44 GiB (69%)
Writing library : x264 core 129 r2245+704+36 8e61944 tMod+MixAQ [[email protected]:2:0 X86_64]
Encoding settings : cabac=1 / ref=9 / deblock=1:-1:-1 / analyse=0x3:0x133 / me=umh / subme=11 / psy=1 / fade_compensate=0.00 / psy_rd=0.60:0.00 / mixed_ref=1 / me_range=32 / chroma_me=1 / trellis=2 / 8x8dct=1 / cqm=0 / deadzone=21,11 / fast_pskip=0 / chroma_qp_offset=-2 / threads=18 / lookahead_threads=3 / sliced_threads=0 / nr=0 / decimate=0 / interlaced=0 / bluray_compat=0 / constrained_intra=0 / fgo=0 / bframes=10 / b_pyramid=2 / b_adapt=2 / b_bias=0 / direct=3 / weightb=1 / open_gop=0 / weightp=2 / keyint=250 / keyint_min=23 / scenecut=40 / intra_refresh=0 / rc=2pass / mbtree=0 / bitrate=4778 / ratetol=1.0 / qcomp=0.70 / qpmin=0 / qpmax=69 / qpstep=4 / cplxblur=20.0 / qblur=0.5 / ip_ratio=1.40 / pb_ratio=1.30 / aq=3 / aq-strength=0.95 / aq-sensitivity=10.00 / aq-ifactor=1.00 / aq-pfactor=1.00 / aq-bfactor=1.00 / aq2=0
Default : Yes
Forced : No

Audio #1
ID : 2
Format : DTS
Format/Info : Digital Theater Systems
Mode : 16
Format settings, Endianness : Big
Codec ID : A_DTS
Duration : 1h 15mn
Bit rate mode : Constant
Bit rate : 1 509 Kbps
Channel(s) : 6 channels
Channel positions : Front: L C R, Side: L R, LFE
Sampling rate : 48.0 KHz
Bit depth : 24 bits
Compression mode : Lossy
Stream size : 810 MiB (22%)
Language : Japanese
Default : No
Forced : No

Audio #2
ID : 3
Format : AC-3
Format/Info : Audio Coding 3
Mode extension : CM (complete main)
Format settings, Endianness : Big
Codec ID : A_AC3
Duration : 1h 15mn
Bit rate mode : Constant
Bit rate : 448 Kbps
Channel(s) : 6 channels
Channel positions : Front: L C R, Side: L R, LFE
Sampling rate : 48.0 KHz
Bit depth : 16 bits
Compression mode : Lossy
Stream size : 241 MiB (7%)
Language : German
Default : Yes
Forced : No

Text
ID : 4
Format : UTF-8
Codec ID : S_TEXT/UTF8
Codec ID/Info : UTF-8 Plain Text
Language : English
Default : No
Forced : No
Video Stream: BD | Audio Stream: AC3 | Video Codec: MPEG-4 H.264 / AVC
Hoster: SO, UL | Größe: 3617,71 MB | Parts: 15 | Passwort: - wird nicht benötigt -

+++ Alle Mirrors sind miteinander kompatibel +++
[Link nur für registrierte und freigeschaltete Benutzer sichtbar]
Share-online.biz [Link nur für registrierte und freigeschaltete Benutzer sichtbar] ([Link nur für registrierte und freigeschaltete Benutzer sichtbar])
Uploaded.net [Link nur für registrierte und freigeschaltete Benutzer sichtbar] ([Link nur für registrierte und freigeschaltete Benutzer sichtbar])