PDA

Archiv verlassen und diese Seite im Standarddesign anzeigen : Dumm und Duemmehr 2014 German DTS DL 1080p BluRay x264 - XDD



JohnnyM89
12.02.15, 18:05
Dumm und Duemmehr 2014 German DTS DL 1080p BluRay x264-XDD

[Link nur für registrierte und freigeschaltete Benutzer sichtbar]


Zwanzig Jahre nach ihrem legendären Trip ins verschneite Aspen machen sich die beiden Vollpfosten Harry und Lloyd wieder auf in ein neues Abenteuer, bei dem sie Harrys Kind finden müssen. Allerdings wäre es wohl besser gewesen, Harry hätte nie von seinem Nachwuchs erfahren und auch noch die Verantwortung dafür bekommen...


Genre: Komoedie
Laufzeit: 109 Min.
Sprache: [Link nur für registrierte und freigeschaltete Benutzer sichtbar] [Link nur für registrierte und freigeschaltete Benutzer sichtbar]
Größe: 14248 MB
Parts: 14


Share-Online.biz
[Link nur für registrierte und freigeschaltete Benutzer sichtbar]
Download ([Link nur für registrierte und freigeschaltete Benutzer sichtbar])
Uploaded.net
[Link nur für registrierte und freigeschaltete Benutzer sichtbar]
Download ([Link nur für registrierte und freigeschaltete Benutzer sichtbar])

Nfo

General
Unique ID : 182363567812253621715282082823302652929 (0x8931F212F0778D42A46460009B9DA401)
Complete name : D:\1080p\DuD_2_2014_XDD\D.u.D.2.2014.German.1080p. BluRay.DTS.x264-XDD.mkv
Format : Matroska
Format version : Version 4 / Version 2
File size : 13.9 GiB
Duration : 1h 49mn
Overall bit rate : 18.2 Mbps
Encoded date : UTC 2015-02-10 07:14:37
Writing application : mkvmerge v7.0.0 ('Where We Going') 64bit built on Jun 9 2014 15:16:27
Writing library : libebml v1.3.0 + libmatroska v1.4.1
_STATISTICS_WRITING_APP : mkvmerge v7.0.0 ('Where We Going') 64bit built on Jun 9 2014 15:16:27
_STATISTICS_WRITING_DATE_UTC : 2015-02-10 07:14:37
_STATISTICS_TAGS : BPS DURATION NUMBER_OF_FRAMES NUMBER_OF_BYTES
DURATION : 01:49:30.614000000
NUMBER_OF_FRAMES : 615995
NUMBER_OF_BYTES : 630778880

Video
ID : 1
Format : AVC
Format/Info : Advanced Video Codec
Format profile : [email protected]
Format settings, CABAC : Yes
Format settings, ReFrames : 4 frames
Codec ID : V_MPEG4/ISO/AVC
Duration : 1h 49mn
Bit rate : 15.6 Mbps
Width : 1 920 pixels
Height : 1 040 pixels
Display aspect ratio : 1.85:1
Frame rate mode : Constant
Frame rate : 23.976 fps
Color space : YUV
Chroma subsampling : 4:2:0
Bit depth : 8 bits
Scan type : Progressive
Bits/(Pixel*Frame) : 0.325
Stream size : 11.9 GiB (85%)
Writing library : x264 core 142 r2431+42 c69a006 tMod [[email protected] X86_64]
Encoding settings : cabac=1 / ref=4 / deblock=1:-3:-3 / analyse=0x3:0x133 / me=umh / subme=9 / psy=1 / fade_compensate=0.00 / psy_rd=1.05:0.00 / mixed_ref=1 / me_range=24 / chroma_me=1 / trellis=2 / 8x8dct=1 / cqm=0 / deadzone=21,11 / fast_pskip=0 / chroma_qp_offset=-2 / threads=18 / lookahead_threads=3 / sliced_threads=0 / nr=0 / decimate=0 / interlaced=0 / bluray_compat=0 / constrained_intra=0 / fgo=0 / bframes=8 / b_pyramid=2 / b_adapt=2 / b_bias=0 / direct=3 / weightb=1 / open_gop=0 / weightp=2 / keyint=250 / keyint_min=23 / scenecut=40 / intra_refresh=0 / rc=crf / mbtree=0 / crf=18.0000 / qcomp=0.65 / qpmin=0:0:0 / qpmax=69:69:69 / qpstep=4 / ip_ratio=1.30 / pb_ratio=1.20 / aq=3:0.80 / aq-sensitivity=10.00 / aq-factor=1.00:1.00:1.00 / aq2=0 / aq3=0
Language : English
Default : Yes
Forced : No
_STATISTICS_WRITING_APP : mkvmerge v7.0.0 ('Where We Going') 64bit built on Jun 9 2014 15:16:27
_STATISTICS_WRITING_DATE_UTC : 2015-02-10 07:14:37
_STATISTICS_TAGS : BPS DURATION NUMBER_OF_FRAMES NUMBER_OF_BYTES
DURATION : 01:49:30.523000000
NUMBER_OF_FRAMES : 157535
NUMBER_OF_BYTES : 13067196039

Audio #1
ID : 2
Format : DTS
Format/Info : Digital Theater Systems
Mode : 16
Format settings, Endianness : Big
Codec ID : A_DTS
Duration : 1h 49mn
Bit rate mode : Constant
Bit rate : 768 Kbps
Channel(s) : 6 channels
Channel positions : Front: L C R, Side: L R, LFE
Sampling rate : 48.0 KHz
Bit depth : 24 bits
Compression mode : Lossy
Stream size : 602 MiB (4%)
Language : German
Default : Yes
Forced : No

Audio #2
ID : 3
Format : DTS
Format/Info : Digital Theater Systems
Mode : 16
Format settings, Endianness : Big
Codec ID : A_DTS
Duration : 1h 49mn
Bit rate mode : Constant
Bit rate : 1 509 Kbps
Channel(s) : 6 channels
Channel positions : Front: L C R, Side: L R, LFE
Sampling rate : 48.0 KHz
Bit depth : 24 bits
Compression mode : Lossy
Stream size : 1.15 GiB (8%)
Language : English
Default : No
Forced : No

Text #1
ID : 4
Format : UTF-8
Codec ID : S_TEXT/UTF8
Codec ID/Info : UTF-8 Plain Text
Language : English
Default : No
Forced : No

Text #2
ID : 5
Format : UTF-8
Codec ID : S_TEXT/UTF8
Codec ID/Info : UTF-8 Plain Text
Title : SDH
Language : English
Default : No
Forced : No

Menu
00:00:00.000 : en:00:00:00.000
00:04:23.889 : en:00:04:23.889
00:10:19.744 : en:00:10:19.744
00:17:49.694 : en:00:17:49.694
00:24:31.428 : en:00:24:31.428
00:30:35.792 : en:00:30:35.792
00:35:48.146 : en:00:35:48.146
00:40:26.883 : en:00:40:26.883
00:44:24.579 : en:00:44:24.579
00:51:00.933 : en:00:51:00.933
00:54:27.306 : en:00:54:27.306
00:57:44.920 : en:00:57:44.920
01:03:21.464 : en:01:03:21.464
01:09:23.951 : en:01:09:23.951
01:15:05.876 : en:01:15:05.876
01:21:16.080 : en:01:21:16.080
01:24:48.125 : en:01:24:48.125
01:29:38.540 : en:01:29:38.540
01:37:07.947 : en:01:37:07.947
01:42:12.877 : en:01:42:12.877

falkefalke
14.02.15, 19:12
Dumm.und.Duemmehr.2014.German.DTS.DL.1080p.BluRay. x264-XDD


[Link nur für registrierte und freigeschaltete Benutzer sichtbar]

Titel: Dumm und Dümmehr
Genre: Comedy
Laufzeit: 109 Min.
Sprache/n: Englisch, Deutsch
Video Stream: BD
Audio Stream: DTS
Video Codec: MPEG-4 H.264 / AVC

Zwanzig Jahre nach ihrem legendären Trip ins verschneite Aspen machen sich die beiden Vollpfosten Harry und Lloyd wieder auf in ein neues Abenteuer, bei dem sie Harrys Kind finden müssen. Allerdings wäre es wohl besser gewesen, Harry hätte nie von seinem Nachwuchs erfahren und auch noch die Verantwortung dafür bekommen...


nfo:


General
Unique ID : 182363567812253621715282082823302652929 (0x8931F212F0778D42A46460009B9DA401)
Complete name : D:\1080p\DuD_2_2014_XDD\D.u.D.2.2014.German.1080p. BluRay.DTS.x264-XDD.mkv
Format : Matroska
Format version : Version 4 / Version 2
File size : 13.9 GiB
Duration : 1h 49mn
Overall bit rate : 18.2 Mbps
Encoded date : UTC 2015-02-10 07:14:37
Writing application : mkvmerge v7.0.0 ('Where We Going') 64bit built on Jun 9 2014 15:16:27
Writing library : libebml v1.3.0 + libmatroska v1.4.1
_STATISTICS_WRITING_APP : mkvmerge v7.0.0 ('Where We Going') 64bit built on Jun 9 2014 15:16:27
_STATISTICS_WRITING_DATE_UTC : 2015-02-10 07:14:37
_STATISTICS_TAGS : BPS DURATION NUMBER_OF_FRAMES NUMBER_OF_BYTES
DURATION : 01:49:30.614000000
NUMBER_OF_FRAMES : 615995
NUMBER_OF_BYTES : 630778880

Video
ID : 1
Format : AVC
Format/Info : Advanced Video Codec
Format profile : [email protected]
Format settings, CABAC : Yes
Format settings, ReFrames : 4 frames
Codec ID : V_MPEG4/ISO/AVC
Duration : 1h 49mn
Bit rate : 15.6 Mbps
Width : 1 920 pixels
Height : 1 040 pixels
Display aspect ratio : 1.85:1
Frame rate mode : Constant
Frame rate : 23.976 fps
Color space : YUV
Chroma subsampling : 4:2:0
Bit depth : 8 bits
Scan type : Progressive
Bits/(Pixel*Frame) : 0.325
Stream size : 11.9 GiB (85%)
Writing library : x264 core 142 r2431+42 c69a006 tMod [[email protected] X86_64]
Encoding settings : cabac=1 / ref=4 / deblock=1:-3:-3 / analyse=0x3:0x133 / me=umh / subme=9 / psy=1 / fade_compensate=0.00 / psy_rd=1.05:0.00 / mixed_ref=1 / me_range=24 / chroma_me=1 / trellis=2 / 8x8dct=1 / cqm=0 / deadzone=21,11 / fast_pskip=0 / chroma_qp_offset=-2 / threads=18 / lookahead_threads=3 / sliced_threads=0 / nr=0 / decimate=0 / interlaced=0 / bluray_compat=0 / constrained_intra=0 / fgo=0 / bframes=8 / b_pyramid=2 / b_adapt=2 / b_bias=0 / direct=3 / weightb=1 / open_gop=0 / weightp=2 / keyint=250 / keyint_min=23 / scenecut=40 / intra_refresh=0 / rc=crf / mbtree=0 / crf=18.0000 / qcomp=0.65 / qpmin=0:0:0 / qpmax=69:69:69 / qpstep=4 / ip_ratio=1.30 / pb_ratio=1.20 / aq=3:0.80 / aq-sensitivity=10.00 / aq-factor=1.00:1.00:1.00 / aq2=0 / aq3=0
Language : English
Default : Yes
Forced : No
_STATISTICS_WRITING_APP : mkvmerge v7.0.0 ('Where We Going') 64bit built on Jun 9 2014 15:16:27
_STATISTICS_WRITING_DATE_UTC : 2015-02-10 07:14:37
_STATISTICS_TAGS : BPS DURATION NUMBER_OF_FRAMES NUMBER_OF_BYTES
DURATION : 01:49:30.523000000
NUMBER_OF_FRAMES : 157535
NUMBER_OF_BYTES : 13067196039

Audio #1
ID : 2
Format : DTS
Format/Info : Digital Theater Systems
Mode : 16
Format settings, Endianness : Big
Codec ID : A_DTS
Duration : 1h 49mn
Bit rate mode : Constant
Bit rate : 768 Kbps
Channel(s) : 6 channels
Channel positions : Front: L C R, Side: L R, LFE
Sampling rate : 48.0 KHz
Bit depth : 24 bits
Compression mode : Lossy
Stream size : 602 MiB (4%)
Language : German
Default : Yes
Forced : No

Audio #2
ID : 3
Format : DTS
Format/Info : Digital Theater Systems
Mode : 16
Format settings, Endianness : Big
Codec ID : A_DTS
Duration : 1h 49mn
Bit rate mode : Constant
Bit rate : 1 509 Kbps
Channel(s) : 6 channels
Channel positions : Front: L C R, Side: L R, LFE
Sampling rate : 48.0 KHz
Bit depth : 24 bits
Compression mode : Lossy
Stream size : 1.15 GiB (8%)
Language : English
Default : No
Forced : No

Text #1
ID : 4
Format : UTF-8
Codec ID : S_TEXT/UTF8
Codec ID/Info : UTF-8 Plain Text
Language : English
Default : No
Forced : No

Text #2
ID : 5
Format : UTF-8
Codec ID : S_TEXT/UTF8
Codec ID/Info : UTF-8 Plain Text
Title : SDH
Language : English
Default : No
Forced : No

Menu
00:00:00.000 : en:00:00:00.000
00:04:23.889 : en:00:04:23.889
00:10:19.744 : en:00:10:19.744
00:17:49.694 : en:00:17:49.694
00:24:31.428 : en:00:24:31.428
00:30:35.792 : en:00:30:35.792
00:35:48.146 : en:00:35:48.146
00:40:26.883 : en:00:40:26.883
00:44:24.579 : en:00:44:24.579
00:51:00.933 : en:00:51:00.933
00:54:27.306 : en:00:54:27.306
00:57:44.920 : en:00:57:44.920
01:03:21.464 : en:01:03:21.464
01:09:23.951 : en:01:09:23.951
01:15:05.876 : en:01:15:05.876
01:21:16.080 : en:01:21:16.080
01:24:48.125 : en:01:24:48.125
01:29:38.540 : en:01:29:38.540
01:37:07.947 : en:01:37:07.947
01:42:12.877 : en:01:42:12.877

Hoster:

Uploaded.net / Share-online.biz / Uploadable.ch / Oboom.com

Total Size: 14248 MB (15 Parts)

Uploaded.net
[Link nur für registrierte und freigeschaltete Benutzer sichtbar] ([Link nur für registrierte und freigeschaltete Benutzer sichtbar])
Download ([Link nur für registrierte und freigeschaltete Benutzer sichtbar])Share-online.biz
[Link nur für registrierte und freigeschaltete Benutzer sichtbar] ([Link nur für registrierte und freigeschaltete Benutzer sichtbar])
Download ([Link nur für registrierte und freigeschaltete Benutzer sichtbar])Uploadable.ch
[Link nur für registrierte und freigeschaltete Benutzer sichtbar] ([Link nur für registrierte und freigeschaltete Benutzer sichtbar])
Download ([Link nur für registrierte und freigeschaltete Benutzer sichtbar])Oboom.com
[Link nur für registrierte und freigeschaltete Benutzer sichtbar] ([Link nur für registrierte und freigeschaltete Benutzer sichtbar])
Download ([Link nur für registrierte und freigeschaltete Benutzer sichtbar])